+3

Долгожданный рассвет / Finalmente l'alba / Finally Dawn (2023) WEB-DLRip от toxics & селезень | D

Информация о фильме
Название: Долгожданный рассвет
Оригинальное название: Finalmente l'alba / Finally Dawn
Год выхода:
2023
Жанр: Драма, история
Режиссер: Саверио Костанцо
В ролях: Ребекка Антоначи, Лили Джеймс, Джо Кири, Рэйчел Сеннотт, Альба Рорвахер, Уиллем Дефо, София Паницци, Кармен Поммелла, Джованни Москелла, Энцо Казертано

Описание:
Рим, 1950-е годы. Накануне помолвки с нелюбимым мужчиной молодая девушка решает испытать судьбу и отправляется на пробы в известную киностудию Cinecitta. Спонтанная поездка превращается в бесконечную ночь, во время которой она всем сердцем втягивается в манящий мир кино.

Страна: Италия
Студия: Cinecittà, FilmNation Entertainment, Fremantle, Rai Cinema, Wildside Media
Продолжительность: 01:53:51
Перевод: Дублированный | Мосфильм-Мастер

Файл
Формат: AVI
Качество: WEB-DLRip
Видео: XviD, 720x352, 1634 Kbps , 24 fps
Аудио: AC3, 48 KHz, 2 ch, 192 kbps | Русский | Дублированный | Мосфильм-Мастер | RUS | Долгожданный рассвет / Finalmente l'alba / Finally Dawn (2023) WEB-DLRip от toxics & селезень | D
Субтитры: Русcкие (форсированные вшитые)

Долгожданный рассвет / Finalmente l'alba / Finally Dawn (2023) WEB-DLRip от toxics & селезень | D

Авторизуйтесь для получения доступа к скачиванию

Нет аккаунта? Регистрация открыта и займёт меньше минуты

Вход Регистрация

Общее
Полное имя : D:\Dolgozhdannyi.Rassvet.2023.D.1.46GB.WEB-DLRip[toxics.and.seleZen].avi
Формат : AVI
Формат/Информация : Audio Video Interleave
Настройки формата : BitmapInfoHeader / WaveFormatEx
Размер файла : 1,46 Гбайт
Продолжительность : 1 ч. 53 м.
Общий поток : 1 836 Кбит/сек
Частота кадров : 24,000 кадра/сек
Программа кодирования : VirtualDubMod 1.5.10.3 | www.virtualdub-fr.org || (build 2550/release)
Библиотека кодирования : VirtualDubMod build 2550/release

Видео
Идентификатор : 0
Формат : MPEG-4 Visual
Профиль формата : Advanced Simple@L5
Настройки формата : BVOP2 / Custom Matrix
Параметр BVOP формата : 2
Параметр QPel формата : Нет
Параметр GMC формата : Без точки перехода
Параметр матрицы формата : Выборочная
Идентификатор кодека : XVID
Идентификатор кодека/Подсказка : XviD
Продолжительность : 1 ч. 53 м.
Битрейт : 1 634 Кбит/сек
Ширина : 720 пикселей
Высота : 352 пикселя
Соотношение сторон : 2,045
Частота кадров : 24,000 кадра/сек
Цветовое пространство : YUV
Субдискретизация насыщенности : 4:2:0
Битовая глубина : 8 бит
Тип развёртки : Прогрессивная
Метод сжатия : С потерями
Бит/(Пиксели*Кадры) : 0.269
Размер потока : 1,30 Гбайт (89%)
Библиотека кодирования : XviD 73

Аудио
Идентификатор : 1
Формат : AC-3
Формат/Информация : Audio Coding 3
Коммерческое название : Dolby Digital
Идентификатор кодека : 2000
Продолжительность : 1 ч. 53 м.
Вид битрейта : Постоянный
Битрейт : 192 Кбит/сек
Каналы : 2 канала
Channel layout : L R
Частота : 48,0 КГц
Частота кадров : 31,250 кадров/сек (1536 SPF)
Метод сжатия : С потерями
Размер потока : 156 Мбайт (10%)
Выравнивание : Разделение по промежуткам
Продолжительность промежутка : 42 мс. (1,00 видеокадр)
Время предзагрузки промежутка : 500 мс.
Service kind : Complete Main

Другие фильмы
У данной публикации пока нет комментариев.
Будь первым, оставь своё мнение в комментариях!
Информация
Посетители, находящиеся в группе Гости, не могут оставлять комментарии к данной публикации.
Самый популярный релиз недели
Донаты
Мы в соц. сетях / RSS

Лучшие релизы месяца
Лучшие SD недели
Лучшие 720p недели
Лучшие 1080p недели
Лучшие 4K недели
Вы недавно смотрели
Реклама
Последние комментарии
...

rmzshka

15 мая 2024 13:43

...

Andrey_Vladimirovich

13 мая 2024 18:12

...

Robot

13 мая 2024 16:53

...

rmzshka

13 мая 2024 16:21

...

supermehanik

13 мая 2024 02:03

Реклама