+3

Манодром / Manodrome (2023) WEB-DLRip от toxics & селезень | P2 | ViruseProject

Информация о фильме
Название: Манодром
Оригинальное название: Manodrome
Год выхода: 2023
Жанр: Драма, триллер
Режиссер: Джон Тренгов
В ролях: Джесси Айзенберг, Эдриан Броуди, Одесса Янг, Филип Эттинджер, Сальё Сесе, Эван Джоникайт, Калеб Эберхардт, Итан Сапли, Ламар Джонсон, Георге Мурешан

Описание:
У Ральфи в жизни наступил сложный период. Его девушка Сэл скоро родит, он потерял работу и теперь вынужден таксовать. Чтобы справиться со стрессом, Ральфи употребляет антидепрессанты и ходит в спортзал. Однажды товарищ по «качалке» предлагает парню встретиться с «нужными людьми», которые помогут ему встать на ноги и вновь обрести уверенность в себе.

Страна: Великобритания, США
Студия: Capstone Studios, Felix Culpa, Liminal Content, Pulse, Riverside Entertainment
Продолжительность: 01:35:59
Перевод: Профессиональный двухголосый | ViruseProject | 18+

Файл
Формат: AVI
Качество: WEB-DLRip
Видео: XviD, 704x384, 1731 Kbps , 23.976 fps
Аудио: AC3, 48 KHz, 5.1 ch, 448 kbps | Русский | Профессиональный двухголосый | ViruseProject | 18+ | RUS | Манодром / Manodrome (2023) WEB-DLRip от toxics & селезень | P2 | ViruseProject
Субтитры: Русcкие (полные)

Манодром / Manodrome (2023) WEB-DLRip от toxics & селезень | P2 | ViruseProject

Авторизуйтесь для получения доступа к скачиванию

Нет аккаунта? Регистрация открыта и займёт меньше минуты

Вход Регистрация

Общее
Полное имя : D:\Manodrome.2023.P2.AMZN.1.46GB.WEB-DLRip.[toxics.and.seleZen]\Manodrome.2023.P2.AMZN.1.46GB.WEB-DLRip.[toxics.and.seleZen].avi
Формат : AVI
Формат/Информация : Audio Video Interleave
Настройки формата : BitmapInfoHeader / WaveFormatEx
Размер файла : 1,47 Гбайт
Продолжительность : 1 ч. 35 м.
Общий поток : 2 188 Кбит/сек
Частота кадров : 23,976 кадра/сек
Программа кодирования : VirtualDubMod 1.5.10.3 | www.virtualdub-fr.org || (build 2550/release)
Библиотека кодирования : VirtualDubMod build 2550/release

Видео
Идентификатор : 0
Формат : MPEG-4 Visual
Профиль формата : Advanced Simple@L5
Настройки формата : BVOP2 / Custom Matrix
Параметр BVOP формата : 2
Параметр QPel формата : Нет
Параметр GMC формата : Без точки перехода
Параметр матрицы формата : Выборочная
Идентификатор кодека : XVID
Идентификатор кодека/Подсказка : XviD
Продолжительность : 1 ч. 35 м.
Битрейт : 1 731 Кбит/сек
Ширина : 704 пикселя
Высота : 384 пикселя
Соотношение сторон : 1,85:1
Частота кадров : 23,976 (24000/1001) кадра/сек
Цветовое пространство : YUV
Субдискретизация насыщенности : 4:2:0
Битовая глубина : 8 бит
Тип развёртки : Прогрессивная
Метод сжатия : С потерями
Бит/(Пиксели*Кадры) : 0.267
Размер потока : 1,16 Гбайт (79%)
Библиотека кодирования : XviD 73

Аудио
Идентификатор : 1
Формат : AC-3
Формат/Информация : Audio Coding 3
Коммерческое название : Dolby Digital
Идентификатор кодека : 2000
Продолжительность : 1 ч. 35 м.
Вид битрейта : Постоянный
Битрейт : 448 Кбит/сек
Каналы : 6 каналов
Channel layout : L R C LFE Ls Rs
Частота : 48,0 КГц
Частота кадров : 31,250 кадров/сек (1536 SPF)
Метод сжатия : С потерями
Размер потока : 308 Мбайт (20%)
Выравнивание : Разделение по промежуткам
Продолжительность промежутка : 42 мс. (1,00 видеокадр)
Время предзагрузки промежутка : 500 мс.
Service kind : Complete Main

Другие фильмы
У данной публикации пока нет комментариев.
Будь первым, оставь своё мнение в комментариях!
Информация
Посетители, находящиеся в группе Гости, не могут оставлять комментарии к данной публикации.
Самый популярный релиз недели
Донаты
Мы в соц. сетях / RSS

Лучшие релизы месяца
Лучшие SD недели
Лучшие 720p недели
Лучшие 1080p недели
Лучшие 4K недели
Вы недавно смотрели
Реклама
Последние комментарии
...

rmzshka

15 мая 2024 13:43

...

Andrey_Vladimirovich

13 мая 2024 18:12

...

Robot

13 мая 2024 16:53

...

rmzshka

13 мая 2024 16:21

...

supermehanik

13 мая 2024 02:03

Реклама