+3

Плохая девочка / Borderline (2023) WEB-DLRip от toxics & селезень | D

Информация о фильме
Название: Плохая девочка
Оригинальное название: Borderline
Год выхода: 2023
Жанр: триллер, драма
Режиссер: Марко Сандеман
В ролях: Наталия Тена, Мадс Ретер, Мария Бах Хансен, Глория Хьюилер, Миккел Арендт, Асбьёрн Крог Ниссен, Никлас Содерберг Линдстрём, Эллаха Лэк, Сиир Тилиф, Михаэль Слебсагер

О фильме:
Успешный маркетолог Мадс, будучи в командировке в Лондоне, заводит интрижку с очаровательной Джоан. Оторвавшись на полную, Мадс возвращается в Копенгаген, где его ждет любимая. Но Джоан не собирается так просто заканчивать случайную связь. Она отправляется вслед за Мадсом, и одноразовая интрижка перерастает в зловещую историю преследования.

Страна: Великобритания, Дания
Студия: Neon Reaper Productions, Saracen Films
Продолжительность: 01:19:45
Перевод: Дублированный | ОККО

Файл
Формат: AVI
Качество: WEB-DLRip
Видео: XviD, 704x368, 2234 Kbps , 23.976 fps
Аудио: AC3, 48 KHz, 5.1 ch, 384 kbps | Русский | Дублированный | ОККО | RUS | Плохая девочка / Borderline (2023) WEB-DLRip от toxics & селезень | D
Субтитры: Русcкие (форсированные вшитые, полные)

Плохая девочка / Borderline (2023) WEB-DLRip от toxics & селезень | D

Авторизуйтесь для получения доступа к скачиванию

Нет аккаунта? Регистрация открыта и займёт меньше минуты

Вход Регистрация

Общее
Полное имя : D:\Borderline.D.1.46GB.WEB-DLRip.[toxics.and.seleZen]\Borderline.D.1.46GB.WEB-DLRip.[toxics.and.seleZen].avi
Формат : AVI
Формат/Информация : Audio Video Interleave
Настройки формата : BitmapInfoHeader / WaveFormatEx
Размер файла : 1,46 Гбайт
Продолжительность : 1 ч. 19 м.
Общий поток : 2 628 Кбит/сек
Частота кадров : 24,000 кадра/сек
Программа кодирования : VirtualDubMod 1.5.10.3 | www.virtualdub-fr.org || (build 2550/release)
Библиотека кодирования : VirtualDubMod build 2550/release

Видео
Идентификатор : 0
Формат : MPEG-4 Visual
Профиль формата : Advanced Simple@L5
Настройки формата : BVOP1 / Custom Matrix
Параметр BVOP формата : 1
Параметр QPel формата : Нет
Параметр GMC формата : Без точки перехода
Параметр матрицы формата : Выборочная
Идентификатор кодека : XVID
Идентификатор кодека/Подсказка : XviD
Продолжительность : 1 ч. 19 м.
Битрейт : 2 234 Кбит/сек
Ширина : 704 пикселя
Высота : 368 пикселей
Соотношение сторон : 1,913
Частота кадров : 24,000 кадра/сек
Цветовое пространство : YUV
Субдискретизация насыщенности : 4:2:0
Битовая глубина : 8 бит
Тип развёртки : Прогрессивная
Метод сжатия : С потерями
Бит/(Пиксели*Кадры) : 0.359
Размер потока : 1,24 Гбайт (85%)
Библиотека кодирования : XviD 73

Аудио
Идентификатор : 1
Формат : AC-3
Формат/Информация : Audio Coding 3
Коммерческое название : Dolby Digital
Идентификатор кодека : 2000
Продолжительность : 1 ч. 19 м.
Вид битрейта : Постоянный
Битрейт : 384 Кбит/сек
Каналы : 6 каналов
Channel layout : L R C LFE Ls Rs
Частота : 48,0 КГц
Частота кадров : 31,250 кадров/сек (1536 SPF)
Метод сжатия : С потерями
Размер потока : 219 Мбайт (15%)
Выравнивание : Разделение по промежуткам
Продолжительность промежутка : 42 мс. (1,00 видеокадр)
Время предзагрузки промежутка : 500 мс.
Service kind : Complete Main

Другие фильмы
У данной публикации пока нет комментариев.
Будь первым, оставь своё мнение в комментариях!
Информация
Посетители, находящиеся в группе Гости, не могут оставлять комментарии к данной публикации.
Самый популярный релиз недели
Донаты
Мы в соц. сетях / RSS

Лучшие релизы месяца
Лучшие SD недели
Лучшие 720p недели
Лучшие 1080p недели
Лучшие 4K недели
Вы недавно смотрели
Реклама
Последние комментарии
...

rmzshka

15 мая 2024 13:43

...

Andrey_Vladimirovich

13 мая 2024 18:12

...

Robot

13 мая 2024 16:53

...

rmzshka

13 мая 2024 16:21

...

supermehanik

13 мая 2024 02:03

Реклама