+5

Дом у дороги / Road House (2024) WEB-DLRip от toxics & селезень | D | HDRezka Studio

Информация о фильме
Название: Дом у дороги
Оригинальное название: Road House
Год выхода: 2024
Жанр: боевик, драма, криминал
Режиссер: Даг Лайман
В ролях: Джейк Джилленхол, Даниэла Мелшиор, Билли Магнуссен, Конор Макгрегор, Джессика Уильямс, Жоакин де Алмейда, Б.К. Кэннон, Лукас Гейдж, Дж.Д. Пардо, Ханна Лав Ланье

О фильме: Бывший боец UFC Элвуд Далтон переживает не лучшие времена. Он живёт в машине и зарабатывает участием в подпольных боях без правил. Владелица бара «Дом у дороги», который расположен во Флорида-Кис, предлагает Далтону работу вышибалы, поскольку в заведении стабильно устраивают погромы члены местной банды.

Страна: США
Студия: BCD Travel, Metro-Goldwyn-Mayer (MGM), Silver Pictures, Studio Concierge
Продолжительность: 02:03:25
Перевод 1: Дублированный (неофициальный) | HDRezka Studio
Перевод 2: Дублированный (неофициальный) | HDRezka Studio | 18+

Качество: WEB-DLRip
Видео: XviD, 720x304, 1303 Kbps , 23.976 fps
Аудио 1: AС3, 48 KHz, 2 ch, 192 Kbps | Русский | Дублированный (неофициальный) | HDRezka Studio | RUS | Дом у дороги / Road House (2024) WEB-DLRip от toxics & селезень | D | HDRezka Studio
Аудио 2: AС3, 48 KHz, 2 ch, 192 Kbps | Русский | Дублированный (неофициальный) | HDRezka Studio | 18+ | RUS |
Субтитры: Русские (форсированные, полные 18+)

Дом у дороги / Road House (2024) WEB-DLRip от toxics & селезень | D | HDRezka Studio

Авторизуйтесь для получения доступа к скачиванию

Нет аккаунта? Регистрация открыта и займёт меньше минуты

Вход Регистрация

Общее
Полное имя : D:\Road.House.2024.D.1.46GB.WEB-DLRip.[toxics.and.seleZen]\Road.House.2024.D.1.46GB.WEB-DLRip.[toxics.and.seleZen].avi
Формат : AVI
Формат/Информация : Audio Video Interleave
Настройки формата : BitmapInfoHeader / WaveFormatEx
Размер файла : 1,47 Гбайт
Продолжительность : 2 ч. 3 м.
Общий поток : 1 702 Кбит/сек
Частота кадров : 23,976 кадра/сек
Программа кодирования : VirtualDubMod 1.5.10.3 | www.virtualdub-fr.org || (build 2550/release)
Библиотека кодирования : VirtualDubMod build 2550/release

Видео
Идентификатор : 0
Формат : MPEG-4 Visual
Профиль формата : Advanced Simple@L5
Настройки формата : BVOP1 / Custom Matrix
Параметр BVOP формата : 1
Параметр QPel формата : Нет
Параметр GMC формата : Без точки перехода
Параметр матрицы формата : Выборочная
Идентификатор кодека : XVID
Идентификатор кодека/Подсказка : XviD
Продолжительность : 2 ч. 3 м.
Битрейт : 1 303 Кбит/сек
Ширина : 720 пикселей
Высота : 304 пикселя
Соотношение сторон : 2,35:1
Частота кадров : 23,976 (24000/1001) кадра/сек
Цветовое пространство : YUV
Субдискретизация насыщенности : 4:2:0
Битовая глубина : 8 бит
Тип развёртки : Прогрессивная
Метод сжатия : С потерями
Бит/(Пиксели*Кадры) : 0.248
Размер потока : 1,12 Гбайт (77%)
Библиотека кодирования : XviD 73

Аудио #1
Идентификатор : 1
Формат : AC-3
Формат/Информация : Audio Coding 3
Коммерческое название : Dolby Digital
Идентификатор кодека : 2000
Продолжительность : 2 ч. 3 м.
Вид битрейта : Постоянный
Битрейт : 192 Кбит/сек
Каналы : 2 канала
Channel layout : L R
Частота : 48,0 КГц
Частота кадров : 31,250 кадров/сек (1536 SPF)
Метод сжатия : С потерями
Размер потока : 169 Мбайт (11%)
Выравнивание : Разделение по промежуткам
Продолжительность промежутка : 42 мс. (1,00 видеокадр)
Время предзагрузки промежутка : 500 мс.
Заголовок : DUB - HDRezka Studio
Service kind : Complete Main

Аудио #2
Идентификатор : 2
Формат : AC-3
Формат/Информация : Audio Coding 3
Коммерческое название : Dolby Digital
Идентификатор кодека : 2000
Продолжительность : 2 ч. 3 м.
Вид битрейта : Постоянный
Битрейт : 192 Кбит/сек
Каналы : 2 канала
Channel layout : L R
Частота : 48,0 КГц
Частота кадров : 31,250 кадров/сек (1536 SPF)
Метод сжатия : С потерями
Размер потока : 169 Мбайт (11%)
Выравнивание : Разделение по промежуткам
Продолжительность промежутка : 42 мс. (1,00 видеокадр)
Время предзагрузки промежутка : 500 мс.
Заголовок : DUB - HDRezka Studio - 18+
Service kind : Complete Main

Другие фильмы
У данной публикации пока нет комментариев.
Будь первым, оставь своё мнение в комментариях!
Информация
Посетители, находящиеся в группе Гости, не могут оставлять комментарии к данной публикации.
Самый популярный релиз недели
Донаты
Мы в соц. сетях / RSS

Лучшие релизы месяца
Лучшие SD недели
Лучшие 720p недели
Лучшие 1080p недели
Лучшие 4K недели
Вы недавно смотрели
Реклама
Последние комментарии
...

rmzshka

15 мая 2024 13:43

...

Andrey_Vladimirovich

13 мая 2024 18:12

...

Robot

13 мая 2024 16:53

...

rmzshka

13 мая 2024 16:21

...

supermehanik

13 мая 2024 02:03

Реклама