+5

Хилл / The Hill (2023) BDRip от toxics & селезень | P | Jaskier

Информация о фильме
Название: Хилл
Оригинальное название: The Hill
Жанр: Драма, биография, спорт
Год выпуска: 2023
Режиссер: Джефф Челентано / Jeff Celentano
В ролях: Деннис Куэйд, Колин Форд, Джоэль Картер, Скотт Гленн, Сиена Бьорнеруд, Райан Диннинг, Карина Уорм, Бонни Беделиа, Рэнди Хаусер, Джесси Берри, Мейсон Джиллетт, Мила Харрис, Хейли Бителл, Тайрик Джонсон

О фильме: История парня по имени Рики Хилл, который преодолевает свой физический недостаток, чтобы стать игроком Главной лиги бейсбола.

Страна: США
Студия: Rescue Dog Productions, Vitamin A Films
Продолжительность: 02:06:54
Перевод: Профессиональный многоголосый | Jaskier
*** Отсутствует перевод с 00:57:51 по 01:01:57, переведено русскими субтитрами

Файл
Формат: AVI
Качество: BDRip
Видео: XviD, 720x304, 1259 Kbps , 23.976 fps
Аудио: AC3, 48 KHz, 5.1 ch, 384 kbps | Русский | Профессиональный многоголосый | Jaskier | RUS | Хилл / The Hill (2023) BDRip от toxics & селезень | P | Jaskier
Субтитры: Русcкие (форсированные, полные)

Хилл / The Hill (2023) BDRip от toxics & селезень | P | Jaskier

Авторизуйтесь для получения доступа к скачиванию

Нет аккаунта? Регистрация открыта и займёт меньше минуты

Вход Регистрация

Общее
Полное имя : D:\The.Hill.2023.P.1.46GB.BDRip.[toxics.and.seleZen]\The.Hill.2023.P.1.46GB.BDRip.[toxics.and.seleZen].avi
Формат : AVI
Формат/Информация : Audio Video Interleave
Настройки формата : BitmapInfoHeader / WaveFormatEx
Размер файла : 1,46 Гбайт
Продолжительность : 2 ч. 6 м.
Общий поток : 1 652 Кбит/сек
Частота кадров : 23,976 кадра/сек
Программа кодирования : VirtualDubMod 1.5.10.3 | www.virtualdub-fr.org || (build 2550/release)
Библиотека кодирования : VirtualDubMod build 2550/release

Видео
Идентификатор : 0
Формат : MPEG-4 Visual
Профиль формата : Advanced Simple@L5
Настройки формата : BVOP1 / Custom Matrix
Параметр BVOP формата : 1
Параметр QPel формата : Нет
Параметр GMC формата : Без точки перехода
Параметр матрицы формата : Выборочная
Идентификатор кодека : XVID
Идентификатор кодека/Подсказка : XviD
Продолжительность : 2 ч. 6 м.
Битрейт : 1 259 Кбит/сек
Ширина : 720 пикселей
Высота : 304 пикселя
Соотношение сторон : 2,35:1
Частота кадров : 23,976 (24000/1001) кадра/сек
Цветовое пространство : YUV
Субдискретизация насыщенности : 4:2:0
Битовая глубина : 8 бит
Тип развёртки : Прогрессивная
Метод сжатия : С потерями
Бит/(Пиксели*Кадры) : 0.240
Размер потока : 1,12 Гбайт (76%)
Библиотека кодирования : XviD 73

Аудио
Идентификатор : 1
Формат : AC-3
Формат/Информация : Audio Coding 3
Коммерческое название : Dolby Digital
Идентификатор кодека : 2000
Продолжительность : 2 ч. 6 м.
Вид битрейта : Постоянный
Битрейт : 384 Кбит/сек
Каналы : 6 каналов
Channel layout : L R C LFE Ls Rs
Частота : 48,0 КГц
Частота кадров : 31,250 кадров/сек (1536 SPF)
Метод сжатия : С потерями
Размер потока : 349 Мбайт (23%)
Выравнивание : Разделение по промежуткам
Продолжительность промежутка : 42 мс. (1,00 видеокадр)
Время предзагрузки промежутка : 500 мс.
Service kind : Complete Main

Другие фильмы
У данной публикации пока нет комментариев.
Будь первым, оставь своё мнение в комментариях!
Информация
Посетители, находящиеся в группе Гости, не могут оставлять комментарии к данной публикации.
Самый популярный релиз недели
Донаты
Мы в соц. сетях / RSS

Лучшие релизы месяца
Лучшие SD недели
Лучшие 720p недели
Лучшие 1080p недели
Лучшие 4K недели
Вы недавно смотрели
Реклама
Последние комментарии
...

-=DoMiNo=-

9 апреля 2024 17:43

...

supermehanik

9 апреля 2024 16:22

...

selezinka

5 апреля 2024 16:20

...

Kirk1991

30 марта 2024 15:04

...

Robot

22 марта 2024 09:33

Реклама