+16

Мадам Паутина / Madame Web (2024) BDRip-AVC от DoMiNo & селезень | D

Информация о фильме
Название: Мадам Паутина
Оригинальное название: Madame Web
Год выхода: 2024
Жанр: Фантастика, боевик, приключения
Режиссер: С.Дж. Кларксон
В ролях: Дакота Джонсон, Сидни Суини, Изабела Мерсед, Селеста О’Коннор, Тахар Рахим, Майк Эппс, Эмма Робертс, Адам Скотт, Керри Бише, Заша Мэмет

О фильме:
Медсестра из Манхэттена Кассандра Уэбб открывает в себе способность видеть будущее и понимает, что может использовать эту силу, чтобы его изменить. Столкнувшись с тайнами своего прошлого, Кассандра знакомится с тремя девушками, которым суждено однажды стать великими, если они вместе смогут пережить смертельно опасное настоящее.

Страна: США, Канада, Мексика
Продолжительность: 01:56:12
Перевод: Дублированный (MovieDalen)
Субтитры: Русские (Forced, full), английские

Файл
Формат: Matroska
Качество: BDRip-AVC
Видео: 1024x428 at 23.976 fps, [email protected], ~1983 kbps
Аудио: AC3, 6 ch, ~448 kbps - | Русский | Мадам Паутина / Madame Web (2024) BDRip-AVC от DoMiNo & селезень | D
Формат субтитров: softsub (SRT)

Авторизуйтесь для получения доступа к скачиванию

Нет аккаунта? Регистрация открыта и займёт меньше минуты

Вход Регистрация

General
Unique ID : 301704593866525028948047344401664912667 (0xE2FA30F06E1E9C1C05C754B1F8272D1B)
Complete name : R:Madame.Web.2024.DUB.BDRip.x264.seleZen.mkv
Format : Matroska
Format version : Version 4
File size : 1.97 GiB
Duration : 1 h 56 min
Overall bit rate : 2 433 kb/s
Frame rate : 23.976 FPS
Movie name : Madame.Web.2024.DUB.BDRip.x264.seleZen
Encoded date : 2024-04-27 15:30:04 UTC
Writing application : mkvmerge v83.0 ('Circle Of Friends') 64-bit
Writing library : libebml v1.4.5 + libmatroska v1.7.1
Cover : Yes
Attachments : cover.jpg / small_cover.jpg

Video
ID : 1
Format : AVC
Format/Info : Advanced Video Codec
Format profile : [email protected]
Format settings : CABAC / 14 Ref Frames
Format settings, CABAC : Yes
Format settings, Reference : 14 frames
Codec ID : V_MPEG4/ISO/AVC
Duration : 1 h 56 min
Bit rate : 1 983 kb/s
Width : 1 024 pixels
Height : 428 pixels
Display aspect ratio : 2.39:1
Frame rate mode : Constant
Frame rate : 23.976 (24000/1001) FPS
Color space : YUV
Chroma subsampling : 4:2:0
Bit depth : 8 bits
Scan type : Progressive
Bits/(Pixel*Frame) : 0.189
Stream size : 1.61 GiB (81%)
Title : -=DoMiNo=-
Writing library : x264 core 164 r3190 -DoMiNo
Encoding settings : cabac=1 / ref=14 / deblock=1:-2:-2 / analyse=0x3:0x133 / me=umh / subme=10 / psy=1 / psy_rd=1.05:0.05 / mixed_ref=1 / me_range=32 / chroma_me=1 / trellis=2 / 8x8dct=1 / cqm=0 / deadzone=21,11 / fast_pskip=0 / chroma_qp_offset=-3 / threads=13 / lookahead_threads=3 / sliced_threads=0 / nr=0 / decimate=0 / interlaced=0 / bluray_compat=0 / constrained_intra=0 / bframes=10 / b_pyramid=2 / b_adapt=2 / b_bias=0 / direct=1 / weightb=1 / open_gop=0 / weightp=2 / keyint=240 / keyint_min=23 / scenecut=40 / intra_refresh=0 / rc_lookahead=60 / rc=crf / mbtree=0 / crf=18.0 / qcomp=0.60 / qpmin=0 / qpmax=69 / qpstep=4 / vbv_maxrate=50000 / vbv_bufsize=62500 / crf_max=0.0 / nal_hrd=none / filler=0 / ip_ratio=1.40 / pb_ratio=1.30 / aq=3:0.80
Language : English
Default : Yes
Forced : No
Color range : Limited
Color primaries : BT.709
Transfer characteristics : BT.709
Matrix coefficients : BT.709

Audio
ID : 2
Format : AC-3
Format/Info : Audio Coding 3
Commercial name : Dolby Digital
Codec ID : A_AC3
Duration : 1 h 56 min
Bit rate mode : Constant
Bit rate : 448 kb/s
Channel(s) : 6 channels
Channel layout : L R C LFE Ls Rs
Sampling rate : 48.0 kHz
Frame rate : 31.250 FPS (1536 SPF)
Compression mode : Lossy
Stream size : 372 MiB (18%)
Title : Дублированный (MovieDalen)
Language : Russian
Service kind : Complete Main
Default : Yes
Forced : No
AC3_metadata cmixlev : -4.5 dB
surmixlev : -6 dB

Text #1
ID : 3
Format : UTF-8
Codec ID : S_TEXT/UTF8
Codec ID/Info : UTF-8 Plain Text
Duration : 1 h 24 min
Bit rate : 2 b/s
Frame rate : 0.004 FPS
Count of elements : 22
Stream size : 1.46 KiB (0%)
Title : Forced
Language : Russian
Default : No
Forced : No

Text #2
ID : 4
Format : UTF-8
Codec ID : S_TEXT/UTF8
Codec ID/Info : UTF-8 Plain Text
Duration : 1 h 55 min
Bit rate : 90 b/s
Frame rate : 0.221 FPS
Count of elements : 1526
Stream size : 76.3 KiB (0%)
Title : Full
Language : Russian
Default : No
Forced : No

Text #3
ID : 5
Format : UTF-8
Codec ID : S_TEXT/UTF8
Codec ID/Info : UTF-8 Plain Text
Duration : 1 h 47 min
Bit rate : 66 b/s
Frame rate : 0.296 FPS
Count of elements : 1920
Stream size : 52.9 KiB (0%)
Title : SDH
Language : English
Default : No
Forced : No

Menu
00:00:00.000 : en:Chapter 01
00:05:02.260 : en:Chapter 02
00:11:52.002 : en:Chapter 03
00:18:55.425 : en:Chapter 04
00:24:19.583 : en:Chapter 05
00:32:29.697 : en:Chapter 06
00:39:56.435 : en:Chapter 07
00:44:44.431 : en:Chapter 08
00:52:23.473 : en:Chapter 09
00:58:44.062 : en:Chapter 10
01:04:31.117 : en:Chapter 11
01:11:16.355 : en:Chapter 12
01:18:53.937 : en:Chapter 13
01:26:20.592 : en:Chapter 14
01:35:45.740 : en:Chapter 15
01:46:38.600 : en:Chapter 16

Другие фильмы
У данной публикации пока нет комментариев.
Будь первым, оставь своё мнение в комментариях!
Информация
Посетители, находящиеся в группе Гости, не могут оставлять комментарии к данной публикации.
Самый популярный релиз недели
Донаты
Мы в соц. сетях / RSS

Лучшие релизы месяца
Лучшие SD недели
Лучшие 720p недели
Лучшие 1080p недели
Лучшие 4K недели
Вы недавно смотрели
Реклама
Последние комментарии
...

Bonzo

14 июня 2024 14:52

...

rmzshka

13 июня 2024 17:48

...

rmzshka

13 июня 2024 12:24

...

LisNick

13 июня 2024 08:45

...

SkySpirit

8 июня 2024 19:54

Реклама