+19

Кунг-фу Панда 4 / Kung Fu Panda 4 (2024) BDRip-AVC от DoMiNo & селезень | D, P

Информация о фильме
Название: Кунг-фу Панда 4
Оригинальное название: Kung Fu Panda 4
Год выхода: 2024
Жанр: Mультфильм, фэнтези, боевик, комедия, приключения, семейный
Режиссер: Майк Митчелл, Стефани Стайн
В ролях: Джек Блэк, Аквафина, Виола Дэвис, Дастин Хоффман, Брайан Крэнстон, Джеймс Хун, Иэн Макшейн, Ке Хюи Куан, Ронни Чиэн, Лори Тань Чинн

О фильме:
Продолжение приключений легендарного Воина Дракона, его верных друзей и наставника.

Страна: США, Китай
Студия: DreamWorks Animation, DreamWorks SKG, Universal Pictures
Продолжительность: 01:33:39
Перевод 1: Дублированный (неофициальный) | Red Head Sound (Панду По озвучивает Михаил Галустян)
Перевод 2: Профессиональный (многоголосый, закадровый) | Jaskier
Субтитры: Русские (Full)), Английские

Файл
Формат: Matroska
Качество: BDRip-AVC
Видео: 1024x428 at 23.976 fps, [email protected], ~1916 kbps
Аудио 1: AC3, 6 ch, ~448 kbps - | Русский | Кунг-фу Панда 4 / Kung Fu Panda 4 (2024) BDRip-AVC от DoMiNo & селезень | D, P | Red Head Sound
Аудио 2: AC3, 6 ch, ~384 kbps - | Английский | | Jaskier
Формат субтитров: softsub (SRT)

Авторизуйтесь для получения доступа к скачиванию

Нет аккаунта? Регистрация открыта и займёт меньше минуты

Вход Регистрация

General
Unique ID : 115515570103353282503321890238368646532 (0x56E77D532E7FFA86C6807D795D5D0584)
Complete name : R:Kung.Fu.Panda.4.2024.BDRip.x264.seleZen.mkv
Format : Matroska
Format version : Version 4
File size : 1.80 GiB
Duration : 1 h 33 min
Overall bit rate : 2 751 kb/s
Frame rate : 23.976 FPS
Movie name : Kung.Fu.Panda.4.2024.BDRip.x264.seleZen
Encoded date : 2024-05-28 11:26:06 UTC
Writing application : mkvmerge v84.0 ('Sleeper') 64-bit
Writing library : libebml v1.4.5 + libmatroska v1.7.1
Cover : Yes
Attachments : cover.jpg / small_cover.jpg

Video
ID : 1
Format : AVC
Format/Info : Advanced Video Codec
Format profile : [email protected]
Format settings : CABAC / 14 Ref Frames
Format settings, CABAC : Yes
Format settings, Reference : 14 frames
Codec ID : V_MPEG4/ISO/AVC
Duration : 1 h 33 min
Bit rate : 1 916 kb/s
Width : 1 024 pixels
Height : 428 pixels
Display aspect ratio : 2.39:1
Frame rate mode : Constant
Frame rate : 23.976 (24000/1001) FPS
Color space : YUV
Chroma subsampling : 4:2:0
Bit depth : 8 bits
Scan type : Progressive
Bits/(Pixel*Frame) : 0.182
Stream size : 1.25 GiB (70%)
Title : -=DoMiNo=-
Writing library : x264 core 164 r3191 -DoMiNo
Encoding settings : cabac=1 / ref=14 / deblock=1:-1:-1 / analyse=0x3:0x133 / me=umh / subme=10 / psy=1 / psy_rd=1.05:0.08 / mixed_ref=1 / me_range=32 / chroma_me=1 / trellis=2 / 8x8dct=1 / cqm=0 / deadzone=21,11 / fast_pskip=0 / chroma_qp_offset=-3 / threads=13 / lookahead_threads=2 / sliced_threads=0 / nr=0 / decimate=1 / interlaced=0 / bluray_compat=0 / constrained_intra=0 / bframes=9 / b_pyramid=2 / b_adapt=2 / b_bias=0 / direct=3 / weightb=1 / open_gop=0 / weightp=2 / keyint=240 / keyint_min=23 / scenecut=40 / intra_refresh=0 / rc_lookahead=60 / rc=crf / mbtree=0 / crf=18.0 / qcomp=0.60 / qpmin=0 / qpmax=69 / qpstep=4 / vbv_maxrate=50000 / vbv_bufsize=62500 / crf_max=0.0 / nal_hrd=none / filler=0 / ip_ratio=1.35 / pb_ratio=1.25 / aq=3:0.90
Language : English
Default : Yes
Forced : No

Audio #1
ID : 2
Format : AC-3
Format/Info : Audio Coding 3
Commercial name : Dolby Digital
Codec ID : A_AC3
Duration : 1 h 33 min
Bit rate mode : Constant
Bit rate : 448 kb/s
Channel(s) : 6 channels
Channel layout : L R C LFE Ls Rs
Sampling rate : 48.0 kHz
Frame rate : 31.250 FPS (1536 SPF)
Compression mode : Lossy
Stream size : 300 MiB (16%)
Title : Дубляж (Red Head Sound)
Language : Russian
Service kind : Complete Main
Default : Yes
Forced : No
Dialog Normalization : -31 dB
compr : -0.28 dB
cmixlev : -3.0 dB
surmixlev : -3 dB
mixlevel : 284 dB
roomtyp : 3
ltrtcmixlev : -3.0 dB
ltrtsurmixlev : -3.0 dB
lorocmixlev : -3.0 dB
lorosurmixlev : -3.0 dB
dialnorm_Average : -31 dB
dialnorm_Minimum : -31 dB
dialnorm_Maximum : -31 dB

Audio #2
ID : 3
Format : AC-3
Format/Info : Audio Coding 3
Commercial name : Dolby Digital
Codec ID : A_AC3
Duration : 1 h 33 min
Bit rate mode : Constant
Bit rate : 384 kb/s
Channel(s) : 6 channels
Channel layout : L R C LFE Ls Rs
Sampling rate : 48.0 kHz
Frame rate : 31.250 FPS (1536 SPF)
Compression mode : Lossy
Stream size : 257 MiB (14%)
Title : MVO (Jaskier)
Language : Russian
Service kind : Complete Main
Default : No
Forced : No
Dialog Normalization : -31 dB
cmixlev : -4.5 dB
surmixlev : -6 dB
dialnorm_Average : -31 dB
dialnorm_Minimum : -31 dB
dialnorm_Maximum : -31 dB

Text #1
ID : 4
Format : UTF-8
Codec ID : S_TEXT/UTF8
Codec ID/Info : UTF-8 Plain Text
Duration : 1 h 26 min
Bit rate : 129 b/s
Frame rate : 0.365 FPS
Count of elements : 1891
Stream size : 82.1 KiB (0%)
Title : Полные
Language : Russian
Default : No
Forced : No

Text #2
ID : 5
Format : UTF-8
Codec ID : S_TEXT/UTF8
Codec ID/Info : UTF-8 Plain Text
Duration : 1 h 26 min
Bit rate : 69 b/s
Frame rate : 0.262 FPS
Count of elements : 1361
Stream size : 43.7 KiB (0%)
Title : Full
Language : English
Default : No
Forced : No

Text #3
ID : 6
Format : UTF-8
Codec ID : S_TEXT/UTF8
Codec ID/Info : UTF-8 Plain Text
Duration : 1 h 26 min
Bit rate : 79 b/s
Frame rate : 0.325 FPS
Count of elements : 1697
Stream size : 50.7 KiB (0%)
Title : SDH
Language : English
Default : No
Forced : No

Menu
00:00:00.000 : en:Chapter 01
00:04:18.800 : en:Chapter 02
00:09:04.043 : en:Chapter 03
00:12:24.910 : en:Chapter 04
00:16:55.139 : en:Chapter 05
00:20:54.878 : en:Chapter 06
00:25:59.558 : en:Chapter 07
00:31:00.400 : en:Chapter 08
00:35:24.789 : en:Chapter 09
00:40:16.705 : en:Chapter 10
00:44:23.661 : en:Chapter 11
00:50:42.873 : en:Chapter 12
00:55:15.937 : en:Chapter 13
01:00:46.142 : en:Chapter 14
01:04:06.592 : en:Chapter 15
01:08:40.825 : en:Chapter 16
01:12:17.416 : en:Chapter 17
01:17:06.705 : en:Chapter 18
01:22:26.232 : en:Chapter 19
01:24:48.166 : en:Chapter 20

Другие фильмы
Комментарии:

...
Hargs 28 мая 2024 20:37
0

А где bdrip 1080p ?(

Информация
Посетители, находящиеся в группе Гости, не могут оставлять комментарии к данной публикации.
Самый популярный релиз недели
Донаты
Мы в соц. сетях / RSS

Лучшие релизы месяца
Лучшие SD недели
Лучшие 720p недели
Лучшие 1080p недели
Лучшие 4K недели
Вы недавно смотрели
Реклама
Последние комментарии
...

Bonzo

14 июня 2024 14:52

...

rmzshka

13 июня 2024 17:48

...

rmzshka

13 июня 2024 12:24

...

LisNick

13 июня 2024 08:45

...

SkySpirit

8 июня 2024 19:54

Реклама