+6

Май декабрь / May December (2023) WEB-DLRip от toxics & селезень | D

Информация о фильме
Название: Май декабрь
Оригинальное название: May December
Год выхода: 2023
Жанр: драма
Режиссер: Тодд Хейнс
В ролях: Натали Портман, Джулианна Мур, Чарльз Мелтон, Крис Тензис, Андреа Франкл, Гэбриел Чун, Майкензи Тэйлор, Жослин Шелфо, Элизабет Ю, Майк Лопес

О фильме: Скандальный роман 36-летней женщины и старшеклассника попал на первые страницы всех таблоидов. Спустя 20 лет супруги Джо и Грейси счастливы в браке и воспитывают близнецов. Об их истории запретной любви решают снять фильм. Поэтому актриса, которая должна сыграть Грейси, сближается с парой, чтобы лучше подготовиться к роли, но её появление становится испытанием для пары даже после долгой совместной жизни.

Страна: США
Студия: Gloria Sanchez Productions, Killer Films, MountainA, Project Infinity, Taylor & Dodge
Продолжительность: 01:54:00
Перевод: Дублированный | Pride Production

Файл
Формат: AVI
Качество: WEB-DLRip
Видео: XviD, 704x400, 1381 Kbps , 23.976 fps
Аудио: AC3, 48 KHz, 5.1 ch, 448 kbps | Русский | Дублированный | Pride Production | RUS | Май декабрь / May December (2023) WEB-DLRip от toxics & селезень | D
Субтитры: Русcкие (форсированные, полные)

Май декабрь / May December (2023) WEB-DLRip от toxics & селезень | D

Авторизуйтесь для получения доступа к скачиванию

Нет аккаунта? Регистрация открыта и займёт меньше минуты

Вход Регистрация

Общее
Полное имя : D:\May.December.2023.D.1.46GB.WEB-DLRip.[toxics.and.seleZen]\May.December.2023.D.1.46GB.WEB-DLRip.[toxics.and.seleZen].avi
Формат : AVI
Формат/Информация : Audio Video Interleave
Настройки формата : BitmapInfoHeader / WaveFormatEx
Размер файла : 1,46 Гбайт
Продолжительность : 1 ч. 54 м.
Общий поток : 1 839 Кбит/сек
Частота кадров : 24,000 кадра/сек
Программа кодирования : VirtualDubMod 1.5.10.3 | www.virtualdub-fr.org || (build 2550/release)
Библиотека кодирования : VirtualDubMod build 2550/release

Видео
Идентификатор : 0
Формат : MPEG-4 Visual
Профиль формата : Advanced Simple@L5
Настройки формата : BVOP1 / Custom Matrix
Параметр BVOP формата : 1
Параметр QPel формата : Нет
Параметр GMC формата : Без точки перехода
Параметр матрицы формата : Выборочная
Идентификатор кодека : XVID
Идентификатор кодека/Подсказка : XviD
Продолжительность : 1 ч. 54 м.
Битрейт : 1 381 Кбит/сек
Ширина : 704 пикселя
Высота : 400 пикселей
Соотношение сторон : 16:9
Частота кадров : 24,000 кадра/сек
Цветовое пространство : YUV
Субдискретизация насыщенности : 4:2:0
Битовая глубина : 8 бит
Тип развёртки : Прогрессивная
Метод сжатия : С потерями
Бит/(Пиксели*Кадры) : 0.204
Размер потока : 1,10 Гбайт (75%)
Библиотека кодирования : XviD 73

Аудио
Идентификатор : 1
Формат : AC-3
Формат/Информация : Audio Coding 3
Коммерческое название : Dolby Digital
Идентификатор кодека : 2000
Продолжительность : 1 ч. 54 м.
Вид битрейта : Постоянный
Битрейт : 448 Кбит/сек
Каналы : 6 каналов
Channel layout : L R C LFE Ls Rs
Частота : 48,0 КГц
Частота кадров : 31,250 кадров/сек (1536 SPF)
Метод сжатия : С потерями
Размер потока : 365 Мбайт (24%)
Выравнивание : Разделение по промежуткам
Продолжительность промежутка : 42 мс. (1,00 видеокадр)
Время предзагрузки промежутка : 500 мс.
Service kind : Complete Main

Другие фильмы
У данной публикации пока нет комментариев.
Будь первым, оставь своё мнение в комментариях!
Информация
Посетители, находящиеся в группе Гости, не могут оставлять комментарии к данной публикации.
Самый популярный релиз недели
Донаты
Мы в соц. сетях / RSS

Лучшие релизы месяца
Лучшие SD недели
Лучшие 720p недели
Лучшие 1080p недели
Лучшие 4K недели
Вы недавно смотрели
Реклама
Последние комментарии
...

rmzshka

15 мая 2024 13:43

...

Andrey_Vladimirovich

13 мая 2024 18:12

...

Robot

13 мая 2024 16:53

...

rmzshka

13 мая 2024 16:21

...

supermehanik

13 мая 2024 02:03

Реклама