+3

Лиза Франкенштейн / Lisa Frankenstein (2024) WEB-DLRip от toxics & селезень | D

Информация о фильме
Название: Лиза Франкенштейн
Оригинальное название: Lisa Frankenstein
Год выхода: 2024
Жанр: Ужасы, мелодрама, комедия
Режиссер: Зельда Уильямс
В ролях: Кэтрин Ньютон, Коул Спроус, Лиза Соберано, Дженна Дэвис, Трина ЛаФарг, Паола Андино, Джошуа Монтес, Chris Greening, Mae Anglim, Джои Харрис

О фильме: 1989 год. Во время грозы старшеклассница Лиза случайно оживляет викторианского красавчика и начинает делать из него парня своей мечты.

Страна: США
Студия: MXN Entertainment
Продолжительность: 01:41:30
Перевод: Дублированный (неофициальный) | HotVoice 41

Файл
Формат: AVI
Качество: WEB-DLRip
Видео: XviD, 704x384, 1858 Kbps , 23.976 fps
Аудио: AC3, 48 KHz, 2 ch, 192 kbps | Русский | Дублированный (неофициальный) | HotVoice 41 | RUS | Лиза Франкенштейн / Lisa Frankenstein (2024) WEB-DLRip от toxics & селезень | D
Субтитры: Русские (форсированные вшитые, полные)

Лиза Франкенштейн / Lisa Frankenstein (2024) WEB-DLRip от toxics & селезень | D

Авторизуйтесь для получения доступа к скачиванию

Нет аккаунта? Регистрация открыта и займёт меньше минуты

Вход Регистрация

Общее
Полное имя : D:\Lisa.Frankenstein.2024.D.1.46GB.F.WEB-DLRip.[toxics.and.seleZen]\Lisa.Frankenstein.2024.D.1.46GB.F.
WEB-DLRip.[toxics.and.seleZen].avi
Формат : AVI
Формат/Информация : Audio Video Interleave
Настройки формата : BitmapInfoHeader / WaveFormatEx
Размер файла : 1,46 Гбайт
Продолжительность : 1 ч. 41 м.
Общий поток : 2 060 Кбит/сек
Частота кадров : 23,976 кадра/сек
Программа кодирования : VirtualDubMod 1.5.10.3 | www.virtualdub-fr.org || (build 2550/release)
Библиотека кодирования : VirtualDubMod build 2550/release

Видео
Идентификатор : 0
Формат : MPEG-4 Visual
Профиль формата : Advanced Simple@L5
Настройки формата : BVOP1 / Custom Matrix
Параметр BVOP формата : 1
Параметр QPel формата : Нет
Параметр GMC формата : Без точки перехода
Параметр матрицы формата : Выборочная
Идентификатор кодека : XVID
Идентификатор кодека/Подсказка : XviD
Продолжительность : 1 ч. 41 м.
Битрейт : 1 858 Кбит/сек
Ширина : 704 пикселя
Высота : 384 пикселя
Соотношение сторон : 1,85:1
Частота кадров : 23,976 (24000/1001) кадра/сек
Цветовое пространство : YUV
Субдискретизация насыщенности : 4:2:0
Битовая глубина : 8 бит
Тип развёртки : Прогрессивная
Метод сжатия : С потерями
Бит/(Пиксели*Кадры) : 0.287
Размер потока : 1,32 Гбайт (90%)
Библиотека кодирования : XviD 73

Аудио
Идентификатор : 1
Формат : AC-3
Формат/Информация : Audio Coding 3
Коммерческое название : Dolby Digital
Идентификатор кодека : 2000
Продолжительность : 1 ч. 41 м.
Вид битрейта : Постоянный
Битрейт : 192 Кбит/сек
Каналы : 2 канала
Channel layout : L R
Частота : 48,0 КГц
Частота кадров : 31,250 кадров/сек (1536 SPF)
Метод сжатия : С потерями
Размер потока : 139 Мбайт (9%)
Выравнивание : Разделение по промежуткам
Продолжительность промежутка : 42 мс. (1,00 видеокадр)
Время предзагрузки промежутка : 500 мс.
Service kind : Complete Main

Другие фильмы
У данной публикации пока нет комментариев.
Будь первым, оставь своё мнение в комментариях!
Информация
Посетители, находящиеся в группе Гости, не могут оставлять комментарии к данной публикации.
Самый популярный релиз недели
Донаты
Мы в соц. сетях / RSS

Лучшие релизы месяца
Лучшие SD недели
Лучшие 720p недели
Лучшие 1080p недели
Лучшие 4K недели
Вы недавно смотрели
Реклама
Последние комментарии
...

rmzshka

15 мая 2024 13:43

...

Andrey_Vladimirovich

13 мая 2024 18:12

...

Robot

13 мая 2024 16:53

...

rmzshka

13 мая 2024 16:21

...

supermehanik

13 мая 2024 02:03

Реклама