+7

Любовь на Мальдивах / Love in the Maldives (2023) WEB-DLRip-AVC от DoMiNo & селезень | P

Информация о фильме
Название: Любовь на Мальдивах
Оригинальное название: Love in the Maldives
Год выхода: 2023
Жанр: мелодрама
Режиссер: Колин Тейс
В ролях: Джослин Хадон, Джейк Мэнли, Люси Ньюман-Уильямс, Джулиана Уимблс, Патриция МакКензи, Аиша Хашма Хайдар, Икер Анмадей, Рафхан Шариф, Ахмед Ришаан, Намик

О фильме:
Журналистка Рэй Паркер знаменита статьями о своих экстремальных приключениях. Она сплавляется по горным рекам, покоряет Северный полюс, пробирается через непроходимые джунгли, поднимается на невероятные вершины. И всегда одна! Неожиданно редактор дает ей необычное задание — отправиться на Мальдивы. Шокированная девушка не понимает, как в этом раю на земле ей совершать безумства. Но Рэй была бы не Рэй, если бы не нашла повод для выработки адреналина. От местного жителя она узнает легенду о затонувшем корабле с награбленными сокровищами. Из-за сильного течения судно постоянно перемещается по дну и никто не может его найти. Значит, отчаянной журналистке пора собирать дайверскую экипировку.

Выпущено: Канада, США / Hallmark Channel, Johnson Production Group
Продолжительность: 01:21:50
Перевод: Профессиональный (многоголосый, закадровый) | KION

Файл
Формат: Matroska
Качество: WEB-DLRip-AVC
Видео: 1024x576 at 23.976 fps, [email protected], ~2154 kbps
Аудио: AC3, 6 ch, ~448 kbps - | Русский | Любовь на Мальдивах / Love in the Maldives (2023) WEB-DLRip-AVC от DoMiNo & селезень | P
Субтитры: Нет

Авторизуйтесь для получения доступа к скачиванию

Нет аккаунта? Регистрация открыта и займёт меньше минуты

Вход Регистрация

x264 [info]: frame I: 1385 Avg QP: 16.75 size: 59219
x264 [info]: frame P: 28296 Avg QP: 18.83 size: 23909
x264 [info]: frame B: 88063 Avg QP: 20.88 size: 6403

General
Unique ID: 275704412079465331486915781259047227340 (0xCF6ABD0162087ED8D732F736A7304FCC)
Complete name: I: Love.in.the.Maldives.2023.MVO.WEB-DLRip.x264.seleZen.mkv
Format: Matroska
Format version: Version 4
File size: 1.49 GiB
Duration: 1 h 21 min
Overall bit rate: 2 604 kb/s
Frame rate: 23.976 FPS
Movie name: Love.in.the.Maldives.2023.MVO.WEB-DLRip.x264.seleZen
Encoded date: 25.03.2024 19:27:40 UTC
Writing application: mkvmerge v83.0 ('Circle Of Friends') 64-bit
Writing library: libebml v1.4.5 + libmatroska v1.7.1
Cover: Yes
Attachments: cover.jpg / small_cover.jpg

Video
ID: 1
Format: AVC
Format/Info: Advanced Video Codec
Format profile: [email protected]
Format settings: CABAC / 10 Ref Frames
Format settings, CABAC: Yes
Format settings, Reference: 10 frames
Codec ID: V_MPEG4/ISO/AVC
Duration: 1 h 21 min
Bit rate: 2 154 kb/s
Width: 1 024 pixels
Height: 576 pixels
Display aspect ratio: 16:9
Frame rate mode: Constant
Frame rate: 23.976 (24000/1001) FPS
Color space: YUV
Chroma subsampling: 4:2:0
Bit depth: 8 bits
Scan type: Progressive
Bits/(Pixel*Frame): 0.152
Stream size: 1.23 GiB (83%)
Title: -=DoMiNo=-
Writing library: x264 core 164 r3190 7ed753b
Encoding settings: cabac=1 / ref=10 / deblock=1:-2:-1 / analyse=0×3:0×133 / me=umh / subme=10 / psy=1 / psy_rd=1.00:0.15 / mixed_ref=1 / me_range=32 / chroma_me=1 / trellis=2 / 8×8dct=1 / cqm=0 / deadzone=21,11 / fast_pskip=0 / chroma_qp_offset=-3 / threads=18 / lookahead_threads=3 / sliced_threads=0 / nr=0 / decimate=0 / interlaced=0 / bluray_compat=0 / constrained_intra=0 / bframes=9 / b_pyramid=2 / b_adapt=2 / b_bias=0 / direct=1 / weightb=1 / open_gop=0 / weightp=2 / keyint=250 / keyint_min=23 / scenecut=40 / intra_refresh=0 / rc_lookahead=60 / rc=crf / mbtree=0 / crf=19.3 / qcomp=0.60 / qpmin=0 / qpmax=69 / qpstep=4 / vbv_maxrate=50000 / vbv_bufsize=62500 / crf_max=0.0 / nal_hrd=none / filler=0 / ip_ratio=1.40 / pb_ratio=1.30 / aq=3:0.90
Language: English
Default: Yes
Forced: No
Color range: Limited
Color primaries: BT.709
Transfer characteristics: BT.709
Matrix coefficients: BT.709

Audio
ID: 2
Format: AC-3
Format/Info: Audio Coding 3
Commercial name: Dolby Digital
Codec ID: A_AC3
Duration: 1 h 21 min
Bit rate mode: Constant
Bit rate: 448 kb/s
Channel (s): 6 channels
Channel layout: L R C LFE Ls Rs
Sampling rate: 48.0 kHz
Frame rate: 31.250 FPS (1536 SPF)
Compression mode: Lossy
Stream size: 262 MiB (17%)
Title: MVO
Language: Russian
Service kind: Complete Main
Default: Yes
Forced: No

Menu
00:00:00.000: en: Chapter 01
00:05:50.000: en: Chapter 02
00:11:40.000: en: Chapter 03
00:17:30.000: en: Chapter 04
00:23:20.000: en: Chapter 05
00:29:10.000: en: Chapter 06
00:35:00.000: en: Chapter 07
00:40:50.000: en: Chapter 08
00:46:40.000: en: Chapter 09
00:52:30.000: en: Chapter 10
00:58:20.000: en: Chapter 11
01:04:10.000: en: Chapter 12
01:10:00.000: en: Chapter 13
01:15:50.000: en: Chapter 14
01:21:40.000: en: Chapter 15

Другие фильмы
У данной публикации пока нет комментариев.
Будь первым, оставь своё мнение в комментариях!
Информация
Посетители, находящиеся в группе Гости, не могут оставлять комментарии к данной публикации.
Самый популярный релиз недели
Донаты
Мы в соц. сетях / RSS

Лучшие релизы месяца
Лучшие SD недели
Лучшие 720p недели
Лучшие 1080p недели
Лучшие 4K недели
Вы недавно смотрели
Реклама
Последние комментарии
...

rmzshka

15 мая 2024 13:43

...

Andrey_Vladimirovich

13 мая 2024 18:12

...

Robot

13 мая 2024 16:53

...

rmzshka

13 мая 2024 16:21

...

supermehanik

13 мая 2024 02:03

Реклама