+2

Любовь на Мальдивах / Love in the Maldives (2023) WEB-DLRip от toxics & селезень | P

Информация о фильме
Название: Любовь на Мальдивах
Оригинальное название: Love in the Maldives
Год выхода: 2023
Жанр: Мелодрама
Режиссер: Колин Тейс
В ролях: Джослин Хадон, Джейк Мэнли, Люси Ньюман-Уильямс, Джулиана Уимблс, Патриция МакКензи, Аиша Хашма Хайдар, Икер Анмадей, Рафхан Шариф, Ахмед Ришаан, Намик

О фильме: Писательница-путешественница отправляется на Мальдивы, где узнает о затонувшем корабле. Вместе с работником отеля она отправляется на поиски легендарного сокровища.

Страна: Канада, США
Студия: Hallmark Channel, Johnson Production Group
Продолжительность: 01:21:51
Перевод: Профессиональный многоголосый | KION

Качество: WEB-DLRip
Видео: XviD, 704x400, 2095 Kbps , 23.976 fps
Аудио: AC3, 48 KHz, 5.1 ch, 448 kbps | Русский | Профессиональный многоголосый | KION | RUS | Любовь на Мальдивах / Love in the Maldives (2023) WEB-DLRip от toxics & селезень | P
Субтитры: Отсутствуют

Любовь на Мальдивах / Love in the Maldives (2023) WEB-DLRip от toxics & селезень | P

Авторизуйтесь для получения доступа к скачиванию

Нет аккаунта? Регистрация открыта и займёт меньше минуты

Вход Регистрация

Общее
Полное имя : D:\Ljubov.na.Maldivah.2023.P.1.46GB.WEB-DLRip.[toxics.and.seleZen].avi
Формат : AVI
Формат/Информация : Audio Video Interleave
Настройки формата : BitmapInfoHeader / WaveFormatEx
Размер файла : 1,46 Гбайт
Продолжительность : 1 ч. 21 м.
Общий поток : 2 552 Кбит/сек
Частота кадров : 23,976 кадра/сек
Программа кодирования : VirtualDubMod 1.5.10.3 | www.virtualdub-fr.org || (build 2550/release)
Библиотека кодирования : VirtualDubMod build 2550/release

Видео
Идентификатор : 0
Формат : MPEG-4 Visual
Профиль формата : Advanced Simple@L5
Настройки формата : BVOP1 / Custom Matrix
Параметр BVOP формата : 1
Параметр QPel формата : Нет
Параметр GMC формата : Без точки перехода
Параметр матрицы формата : Выборочная
Идентификатор кодека : XVID
Идентификатор кодека/Подсказка : XviD
Продолжительность : 1 ч. 21 м.
Битрейт : 2 095 Кбит/сек
Ширина : 704 пикселя
Высота : 400 пикселей
Соотношение сторон : 16:9
Частота кадров : 23,976 (24000/1001) кадра/сек
Цветовое пространство : YUV
Субдискретизация насыщенности : 4:2:0
Битовая глубина : 8 бит
Тип развёртки : Прогрессивная
Метод сжатия : С потерями
Бит/(Пиксели*Кадры) : 0.310
Размер потока : 1,20 Гбайт (82%)
Библиотека кодирования : XviD 73

Аудио
Идентификатор : 1
Формат : AC-3
Формат/Информация : Audio Coding 3
Коммерческое название : Dolby Digital
Идентификатор кодека : 2000
Продолжительность : 1 ч. 21 м.
Вид битрейта : Постоянный
Битрейт : 448 Кбит/сек
Каналы : 6 каналов
Channel layout : L R C LFE Ls Rs
Частота : 48,0 КГц
Частота кадров : 31,250 кадров/сек (1536 SPF)
Метод сжатия : С потерями
Размер потока : 262 Мбайт (18%)
Выравнивание : Разделение по промежуткам
Продолжительность промежутка : 42 мс. (1,00 видеокадр)
Время предзагрузки промежутка : 500 мс.
Service kind : Complete Main

Другие фильмы
У данной публикации пока нет комментариев.
Будь первым, оставь своё мнение в комментариях!
Информация
Посетители, находящиеся в группе Гости, не могут оставлять комментарии к данной публикации.
Самый популярный релиз недели
Донаты
Мы в соц. сетях / RSS

Лучшие релизы месяца
Лучшие SD недели
Лучшие 720p недели
Лучшие 1080p недели
Лучшие 4K недели
Вы недавно смотрели
Реклама
Последние комментарии
...

rmzshka

15 мая 2024 13:43

...

Andrey_Vladimirovich

13 мая 2024 18:12

...

Robot

13 мая 2024 16:53

...

rmzshka

13 мая 2024 16:21

...

supermehanik

13 мая 2024 02:03

Реклама