+14

Любовь без памяти / 30 дней / 30 il / Love Reset (2023) WEB-DLRip-AVC от DoMiNo & селезень | D

Информация о фильме
Название: Любовь без памяти / 30 дней
Оригинальное название: 30 il / Love Reset
Год выхода: 2023
Жанр: Комедия, мелодрама
Режиссер: Нам Дэ-джун
В ролях: Кан Ха-ныль, Чон Со-мин, Чо Мин-су, Ким Сон-ён, Хван Сэ-ин, Юн Гён-хо, Ом Джи-юн, Сон Хэ-на, Ли Сан-джин, Вон У

Описание:
Поженившись по большой любви, теперь Чон-ёль и На-ра друг друга на дух не переносят. Они подают заявление на развод (после чего по закону должно пройти 30 дней) и, продолжая ругаться за рулём, попадают в аварию, в результате которой обоим отшибает память.

Страна: Корея Южная
Студия: MindMark, th story, Woollim Cinema
Продолжительность: 01:59:04
Перевод: Профессиональный (полное дублирование) | Leff Sound
Субтитры: Русские (Full)

Файл
Формат: Matroska
Качество: WEB-DLRip-AVC
Видео: 1024x510 at 24.000 fps, [email protected], ~1760 kbps
Аудио: AC3, 6 ch, ~384 kbps - | Русский | Любовь без памяти / 30 дней / 30 il / Love Reset (2023) WEB-DLRip-AVC от DoMiNo & селезень | D
Формат субтитров: softsub (SRT)

Авторизуйтесь для получения доступа к скачиванию

Нет аккаунта? Регистрация открыта и займёт меньше минуты

Вход Регистрация

General
Unique ID: 259822952150230758436169281682787294801 (0xC3781493AFD3E0B82D615A3E03945E51)
Complete name: R: Love.Reset.2023.DUB.WEB-DLRip.x264.seleZen.mkv
Format: Matroska
Format version: Version 4
File size: 1.79 GiB
Duration: 1 h 59 min
Overall bit rate: 2 146 kb/s
Frame rate: 24.000 FPS
Movie name: Love.Reset.2023.DUB.WEB-DLRip.x264.seleZen
Encoded date: 21.03.2024 10:33:02 UTC
Writing application: mkvmerge v83.0 ('Circle Of Friends') 64-bit
Writing library: libebml v1.4.5 + libmatroska v1.7.1
Cover: Yes
Attachments: cover.jpg / small_cover.jpg

Video
ID: 1
Format: AVC
Format/Info: Advanced Video Codec
Format profile: [email protected]
Format settings: CABAC / 10 Ref Frames
Format settings, CABAC: Yes
Format settings, Reference: 10 frames
Codec ID: V_MPEG4/ISO/AVC
Duration: 1 h 59 min
Bit rate: 1 760 kb/s
Width: 1 024 pixels
Height: 510 pixels
Display aspect ratio: 2.008
Frame rate mode: Constant
Frame rate: 24.000 FPS
Color space: YUV
Chroma subsampling: 4:2:0
Bit depth: 8 bits
Scan type: Progressive
Bits/(Pixel*Frame): 0.140
Stream size: 1.46 GiB (82%)
Title: -=DoMiNo=-
Writing library: x264 core 164 r3186 -DoMiNo
Encoding settings: cabac=1 / ref=10 / deblock=1:-2:-1 / analyse=0×3:0×133 / me=umh / subme=10 / psy=1 / psy_rd=1.00:0.15 / mixed_ref=1 / me_range=32 / chroma_me=1 / trellis=2 / 8×8dct=1 / cqm=0 / deadzone=21,11 / fast_pskip=0 / chroma_qp_offset=-3 / threads=16 / lookahead_threads=3 / sliced_threads=0 / nr=0 / decimate=0 / interlaced=0 / bluray_compat=0 / constrained_intra=0 / bframes=10 / b_pyramid=2 / b_adapt=2 / b_bias=0 / direct=1 / weightb=1 / open_gop=0 / weightp=2 / keyint=240 / keyint_min=24 / scenecut=40 / intra_refresh=0 / rc_lookahead=60 / rc=crf / mbtree=0 / crf=18.5 / qcomp=0.60 / qpmin=0 / qpmax=69 / qpstep=4 / vbv_maxrate=50000 / vbv_bufsize=62500 / crf_max=0.0 / nal_hrd=none / filler=0 / ip_ratio=1.40 / pb_ratio=1.30 / aq=3:0.90
Language: English
Default: Yes
Forced: No
Color range: Limited
Color primaries: BT.709
Transfer characteristics: BT.709
Matrix coefficients: BT.709

Audio
ID: 2
Format: AC-3
Format/Info: Audio Coding 3
Commercial name: Dolby Digital
Codec ID: A_AC3
Duration: 1 h 59 min
Bit rate mode: Constant
Bit rate: 384 kb/s
Channel (s): 6 channels
Channel layout: L R C LFE Ls Rs
Sampling rate: 48.0 kHz
Frame rate: 31.250 FPS (1536 SPF)
Compression mode: Lossy
Stream size: 327 MiB (18%)
Title: Dub -Leff Sound
Language: Russian
Service kind: Complete Main
Default: Yes
Forced: No

Text
ID: 3
Format: UTF-8
Codec ID: S_TEXT/UTF8
Codec ID/Info: UTF-8 Plain Text
Duration: 1 h 54 min
Bit rate: 99 b/s
Frame rate: 0.281 FPS
Count of elements: 1937
Stream size: 84.2 KiB (0%)
Title: Full
Language: Russian
Default: No
Forced: No

Menu
00:00:00.000: en: Chapter 01
00:05:50.000: en: Chapter 02
00:11:40.000: en: Chapter 03
00:17:30.000: en: Chapter 04
00:23:20.000: en: Chapter 05
00:29:10.000: en: Chapter 06
00:35:00.000: en: Chapter 07
00:40:50.000: en: Chapter 08
00:46:40.000: en: Chapter 09
00:52:30.000: en: Chapter 10
00:58:20.000: en: Chapter 11
01:04:10.000: en: Chapter 12
01:10:00.000: en: Chapter 13
01:15:50.000: en: Chapter 14
01:21:40.000: en: Chapter 15
01:27:30.000: en: Chapter 16
01:33:20.000: en: Chapter 17
01:39:10.000: en: Chapter 18
01:45:00.000: en: Chapter 19
01:50:50.000: en: Chapter 20
01:56:40.000: en: Chapter 21

Другие фильмы
У данной публикации пока нет комментариев.
Будь первым, оставь своё мнение в комментариях!
Информация
Посетители, находящиеся в группе Гости, не могут оставлять комментарии к данной публикации.
Самый популярный релиз недели
Донаты
Мы в соц. сетях / RSS

Лучшие релизы месяца
Лучшие SD недели
Лучшие 720p недели
Лучшие 1080p недели
Лучшие 4K недели
Вы недавно смотрели
Реклама
Последние комментарии
...

rmzshka

15 мая 2024 13:43

...

Andrey_Vladimirovich

13 мая 2024 18:12

...

Robot

13 мая 2024 16:53

...

rmzshka

13 мая 2024 16:21

...

supermehanik

13 мая 2024 02:03

Реклама