+5

Феррари / Ferrari (2023) BDRemux 1080p от селезень | D, P

Информация о фильме
Название: Феррари
Оригинальное название: Ferrari
Год выхода: 2023
Жанр: биография, драма, спорт
Режиссер: Майкл Манн
В ролях: Адам Драйвер, Пенелопа Крус, Шейлин Вудли, Гэбриел Леоне, Джек О'Коннелл, Патрик Демпси, Микеле Савойя, Эрик Хауген, Бен Коллинз, Сара Гадон

О фильме: Модена, 1957 год. Основатель компании-национального достояния Энцо Феррари переживает смерть сына и живёт на два дома - с женой отношения не ладятся, а от давней любовницы у него растёт второй сын. Из-за низких продаж над Ferrari нависает угроза банкротства, а чтобы найти инвестора, Энцо нужно убедить жену дать ему полный контроль над акциями и поднять престиж марки победой в грандиозной гонке на выносливость Mille Miglia.

Страна: США, Великобритания, Италия, Китай
Студия: Forward Pass, Iervolino & Lady Bacardi Entertainment, Moto Productions, Rocket Science, Storyteller Productions
Продолжительность: 02:10:09
Перевод(ы):
#1: Дублированный | Мосфильм-Мастер
#2: Профессиональный многоголосый | NewStudio 18 +


Качество: BDRemux 1080p
Видео: MPEG-4 AVC, 1920x1080, 30.4 Mbit/s, 23.976 fps
Аудио #01: 48 kHz, AC3, 5.1, 384 Kbps | Дублированный | Мосфильм-Мастер | RUS |Феррари / Ferrari (2023) BDRemux 1080p от селезень | D, P
Аудио #02: 48 kHz, E-AC3, 5.1, 384 Kbps | Дублированный | Мосфильм-Мастер | RUS |
Аудио #03: 48 kHz, AC3, 5.1, 384 Kbps | Профессиональный многоголосый | NewStudio 18 + | RUS |
Аудио #04: 48 kHz, TrueHD, 7.1, 3262 Kbps | Оригинал | ENG |
Аудио #05: 48 kHz, AC3, 5.1, 640 Kbps | Оригинал | ENG |
Субтитры: Русские (Full), английские

Феррари / Ferrari (2023) BDRemux 1080p от селезень | D, P

Авторизуйтесь для получения доступа к скачиванию

Нет аккаунта? Регистрация открыта и займёт меньше минуты

Вход Регистрация

General
Unique ID : 319724424872111059659236548883662081186 (0xF088AF339D354DA82ED424B81AFD8CA2)
Complete name : H:\VideoH\Ferrari.2023.BDREMUX.1080p.seleZen.mkv
Format : Matroska
Format version : Version 4
File size : 32.3 GiB
Duration : 2 h 10 min
Overall bit rate mode : Variable
Overall bit rate : 35.5 Mb/s
Frame rate : 23.976 FPS
Movie name : Ferrari 2023 from seleZen
Encoded date : 2024-03-12 23:51:11 UTC
Writing application : mkvmerge v80.0 ('Roundabout') 64-bit
Writing library : libebml v1.4.4 + libmatroska v1.7.1
Cover : Yes
Attachments : cover.jpg / small_cover.jpg

Video
ID : 1
Format : AVC
Format/Info : Advanced Video Codec
Format profile : [email protected]
Format settings : CABAC / 4 Ref Frames
Format settings, CABAC : Yes
Format settings, Reference : 4 frames
Format settings, Slice coun : 4 slices per frame
Codec ID : V_MPEG4/ISO/AVC
Duration : 2 h 10 min
Bit rate mode : Variable
Bit rate : 30.4 Mb/s
Maximum bit rate : 34.0 Mb/s
Width : 1 920 pixels
Height : 1 080 pixels
Display aspect ratio : 16:9
Frame rate mode : Constant
Frame rate : 23.976 (24000/1001) FPS
Color space : YUV
Chroma subsampling : 4:2:0
Bit depth : 8 bits
Scan type : Progressive
Bits/(Pixel*Frame) : 0.611
Time code of first frame : 00:00:00:00
Stream size : 27.6 GiB (86%)
Language : English
Default : No
Forced : No

Audio #1
ID : 2
Format : AC-3
Format/Info : Audio Coding 3
Commercial name : Dolby Digital
Codec ID : A_AC3
Duration : 2 h 10 min
Bit rate mode : Constant
Bit rate : 384 kb/s
Channel(s) : 6 channels
Channel layout : L R C LFE Ls Rs
Sampling rate : 48.0 kHz
Frame rate : 31.250 FPS (1536 SPF)
Compression mode : Lossy
Stream size : 358 MiB (1%)
Title : Dub
Language : Russian
Service kind : Complete Main
Default : Yes
Forced : No

Audio #2
ID : 3
Format : E-AC-3
Format/Info : Enhanced AC-3
Commercial name : Dolby Digital Plus
Codec ID : A_EAC3
Duration : 2 h 10 min
Bit rate mode : Constant
Bit rate : 384 kb/s
Channel(s) : 6 channels
Channel layout : L R C LFE Ls Rs
Sampling rate : 48.0 kHz
Frame rate : 31.250 FPS (1536 SPF)
Compression mode : Lossy
Stream size : 358 MiB (1%)
Title : Dub
Language : Russian
Service kind : Complete Main
Default : Yes
Forced : No

Audio #3
ID : 4
Format : AC-3
Format/Info : Audio Coding 3
Commercial name : Dolby Digital
Codec ID : A_AC3
Duration : 2 h 9 min
Bit rate mode : Constant
Bit rate : 384 kb/s
Channel(s) : 6 channels
Channel layout : L R C LFE Ls Rs
Sampling rate : 48.0 kHz
Frame rate : 31.250 FPS (1536 SPF)
Compression mode : Lossy
Stream size : 356 MiB (1%)
Title : MVO - NewStudio
Language : Russian
Service kind : Complete Main
Default : No
Forced : No

Audio #4
ID : 5
Format : MLP FBA 16-ch
Format/Info : Meridian Lossless Packing FBA with 16-channel presentation
Commercial name : Dolby TrueHD with Dolby Atmos
Codec ID : A_TRUEHD
Duration : 2 h 10 min
Bit rate mode : Variable
Bit rate : 3 262 kb/s
Maximum bit rate : 5 322 kb/s
Channel(s) : 8 channels
Channel layout : L R C LFE Ls Rs Lb Rb
Sampling rate : 48.0 kHz
Frame rate : 1 200.000 FPS (40 SPF)
Compression mode : Lossless
Stream size : 2.97 GiB (9%)
Title : Original
Language : English
Default : No
Forced : No
Number of dynamic objects : 11
Bed channel count : 1 channel
Bed channel configuration : LFE

Audio #5
ID : 6
Format : AC-3
Format/Info : Audio Coding 3
Commercial name : Dolby Digital
Codec ID : A_AC3
Duration : 2 h 10 min
Bit rate mode : Constant
Bit rate : 640 kb/s
Channel(s) : 6 channels
Channel layout : L R C LFE Ls Rs
Sampling rate : 48.0 kHz
Frame rate : 31.250 FPS (1536 SPF)
Compression mode : Lossy
Stream size : 596 MiB (2%)
Language : English
Service kind : Complete Main
Default : No
Forced : No

Text #1
ID : 7
Format : UTF-8
Codec ID : S_TEXT/UTF8
Codec ID/Info : UTF-8 Plain Text
Duration : 2 h 2 min
Bit rate : 68 b/s
Frame rate : 0.171 FPS
Count of elements : 1260
Stream size : 61.7 KiB (0%)
Title : Full
Language : Russian
Default : No
Forced : No

Text #2
ID : 8
Format : UTF-8
Codec ID : S_TEXT/UTF8
Codec ID/Info : UTF-8 Plain Text
Duration : 1 h 57 min
Bit rate : 43 b/s
Frame rate : 0.180 FPS
Count of elements : 1269
Stream size : 37.3 KiB (0%)
Title : Full
Language : English (US)
Default : No
Forced : No

Text #3
ID : 9
Format : UTF-8
Codec ID : S_TEXT/UTF8
Codec ID/Info : UTF-8 Plain Text
Duration : 2 h 8 min
Bit rate : 44 b/s
Frame rate : 0.188 FPS
Count of elements : 1453
Stream size : 42.0 KiB (0%)
Title : SDH
Language : English (US)
Default : No
Forced : No

Menu
00:00:00.000 : en:Chapter 01
00:15:18.960 : en:Chapter 02
00:36:30.730 : en:Chapter 03
00:53:16.777 : en:Chapter 04
01:10:52.373 : en:Chapter 05
01:26:14.711 : en:Chapter 06
01:45:46.799 : en:Chapter 07
02:04:28.920 : en:Chapter 08

Другие фильмы
У данной публикации пока нет комментариев.
Будь первым, оставь своё мнение в комментариях!
Информация
Посетители, находящиеся в группе Гости, не могут оставлять комментарии к данной публикации.
Самый популярный релиз недели
Донаты
Мы в соц. сетях / RSS

Лучшие релизы месяца
Лучшие SD недели
Лучшие 720p недели
Лучшие 1080p недели
Лучшие 4K недели
Вы недавно смотрели
Реклама
Последние комментарии
...

Bonzo

14 июня 2024 14:52

...

rmzshka

13 июня 2024 17:48

...

rmzshka

13 июня 2024 12:24

...

LisNick

13 июня 2024 08:45

...

SkySpirit

8 июня 2024 19:54

Реклама