+4

Кто угодно, кроме тебя / Anyone But You (2023) BDRemux 1080p от селезень | P

Информация о фильме
Название: Кто угодно, кроме тебя
Оригинальное название: Anyone But You
Год выхода: 2023
Жанр: комедия, мелодрама
Режиссер: Уилл Глак
В ролях: Сидни Суини, Глен Пауэлл, Александра Шипп, ГаТа, Хэдли Робинсон, Мишель Херд, Дермот Малруни, Рэйчел Гриффитс, Брайан Браун, Чарли Фрейзер

О фильме: После первого свидания в силу обстоятельств взаимная симпатия между Би и Беном быстро перерастает в ненависть. Спустя полгода их приглашают на свадьбу, и Би с Беном снова вынуждены терпеть друг друга. Правда, на этот раз по личным причинам они решают договориться о перемирии и притвориться парой.

Страна: США, Австралия
Студия: Fifty-Fifty Films, Olive Bridge Entertainment, RK films, Sony Pictures Entertainment (SPE)
Продолжительность: 01:43:34
Перевод: Профессиональный многоголосый | Лицензия

Качество: BDRemux 1080p
Видео: MPEG-4 AVC, 1920x1080, 27.8 Mbit/s, 23.976 fps
Аудио #01: 48 kHz, AC3, 5.1, 384 Kbps | Профессиональный многоголосый | Лицензия | RUS |Кто угодно, кроме тебя / Anyone But You (2023) BDRemux 1080p от селезень | P
Аудио #02: 48 kHz, DTS-HD MA, 5.1, 2207 Kbps | Оригинал | ENG |
Субтитры: Русские (Full), английские

Кто угодно, кроме тебя / Anyone But You (2023) BDRemux 1080p от селезень | P

Авторизуйтесь для получения доступа к скачиванию

Нет аккаунта? Регистрация открыта и займёт меньше минуты

Вход Регистрация

General
Unique ID : 173533810541967047186488706011786782905 (0x828D656DEDED5A810480C884B52E28B9)
Complete name : H:\VideoH\Anyone.But.You.2023.BDREMUX.1080p.seleZen.mkv
Format : Matroska
Format version : Version 4
File size : 22.0 GiB
Duration : 1 h 43 min
Overall bit rate mode : Variable
Overall bit rate : 30.4 Mb/s
Frame rate : 23.976 FPS
Movie name : Anyone But You 2023 from seleZen
Encoded date : 2024-03-09 17:54:19 UTC
Writing application : mkvmerge v80.0 ('Roundabout') 64-bit
Writing library : libebml v1.4.4 + libmatroska v1.7.1

Video
ID : 1
ID in the original source m : 4113 (0x1011)
Format : AVC
Format/Info : Advanced Video Codec
Format profile : [email protected]
Format settings : CABAC / 2 Ref Frames
Format settings, CABAC : Yes
Format settings, Reference : 2 frames
Format settings, GOP : M=1, N=10
Format settings, Slice coun : 4 slices per frame
Codec ID : V_MPEG4/ISO/AVC
Duration : 1 h 43 min
Bit rate mode : Variable
Bit rate : 27.8 Mb/s
Width : 1 920 pixels
Height : 1 080 pixels
Display aspect ratio : 16:9
Frame rate mode : Constant
Frame rate : 23.976 (24000/1001) FPS
Color space : YUV
Chroma subsampling : 4:2:0
Bit depth : 8 bits
Scan type : Progressive
Bits/(Pixel*Frame) : 0.560
Time code of first frame : 00:59:58:00
Stream size : 20.1 GiB (91%)
Language : English
Default : Yes
Forced : No
Original source medium : Blu-ray

Audio #1
ID : 2
Format : AC-3
Format/Info : Audio Coding 3
Commercial name : Dolby Digital
Codec ID : A_AC3
Duration : 1 h 43 min
Bit rate mode : Constant
Bit rate : 384 kb/s
Channel(s) : 6 channels
Channel layout : L R C LFE Ls Rs
Sampling rate : 48.0 kHz
Frame rate : 31.250 FPS (1536 SPF)
Compression mode : Lossy
Stream size : 284 MiB (1%)
Title : MVO_License
Language : Russian
Service kind : Complete Main
Default : Yes
Forced : No

Audio #2
ID : 3
ID in the original source m : 4352 (0x1100)
Format : DTS XLL
Format/Info : Digital Theater Systems
Commercial name : DTS-HD Master Audio
Codec ID : A_DTS
Duration : 1 h 43 min
Bit rate mode : Variable
Bit rate : 2 207 kb/s
Channel(s) : 6 channels
Channel layout : C L R Ls Rs LFE
Sampling rate : 48.0 kHz
Frame rate : 93.750 FPS (512 SPF)
Bit depth : 16 bits
Compression mode : Lossless
Stream size : 1.60 GiB (7%)
Title : Original
Language : English
Default : No
Forced : No
Original source medium : Blu-ray

Text #1
ID : 4
Format : UTF-8
Codec ID : S_TEXT/UTF8
Codec ID/Info : UTF-8 Plain Text
Duration : 1 h 37 min
Bit rate : 90 b/s
Frame rate : 0.292 FPS
Count of elements : 1706
Stream size : 64.4 KiB (0%)
Title : Full
Language : Russian
Default : No
Forced : No

Text #2
ID : 5
Format : UTF-8
Codec ID : S_TEXT/UTF8
Codec ID/Info : UTF-8 Plain Text
Duration : 1 h 42 min
Bit rate : 92 b/s
Frame rate : 0.369 FPS
Count of elements : 2272
Stream size : 69.3 KiB (0%)
Title : SDH
Language : English
Default : No
Forced : No

Menu
00:00:00.000 : en:Chapter 01
00:06:17.294 : en:Chapter 02
00:11:03.621 : en:Chapter 03
00:18:30.651 : en:Chapter 04
00:25:38.078 : en:Chapter 05
00:30:35.417 : en:Chapter 06
00:34:26.356 : en:Chapter 07
00:40:28.801 : en:Chapter 08
00:46:57.064 : en:Chapter 09
00:51:39.471 : en:Chapter 10
00:59:01.204 : en:Chapter 11
01:03:09.953 : en:Chapter 12
01:09:32.335 : en:Chapter 13
01:16:11.233 : en:Chapter 14
01:22:52.509 : en:Chapter 15
01:31:55.093 : en:Chapter 16

Другие фильмы
У данной публикации пока нет комментариев.
Будь первым, оставь своё мнение в комментариях!
Информация
Посетители, находящиеся в группе Гости, не могут оставлять комментарии к данной публикации.
Самый популярный релиз недели
Донаты
Мы в соц. сетях / RSS

Лучшие релизы месяца
Лучшие SD недели
Лучшие 720p недели
Лучшие 1080p недели
Лучшие 4K недели
Вы недавно смотрели
Реклама
Последние комментарии
...

Bonzo

14 июня 2024 14:52

...

rmzshka

13 июня 2024 17:48

...

rmzshka

13 июня 2024 12:24

...

LisNick

13 июня 2024 08:45

...

SkySpirit

8 июня 2024 19:54

Реклама