+11

Аквамен и потерянное царство / Aquaman and the Lost Kingdom (2023) BDRemux 1080p от селезень | D, P

Информация о фильме
Название: Аквамен и потерянное царство
Оригинальное название: Aquaman and the Lost Kingdom
Год выхода: 2023
Жанр: фантастика, фэнтези, боевик, приключения
Режиссер: Джеймс Ван
В ролях: Джейсон Момоа, Патрик Уилсон, Яхья Абдул-Матин II, Эмбер Хёрд, Николь Кидман, Рэндалл Пак, Темуэра Моррисон, Дольф Лундгрен, Мартин Шорт, Яни Жао

О фильме: Пока Аквамен пытается совмещать отцовство и работу царём подводного мира, Дэвид Хайд вынашивает план мести. Его исследовательская экспедиция обнаруживает трезубец проклятого и запертого во льдах повелителя потерянного царства - так Дэвид попадает под влияние его злых чар. Чтобы справиться с этой угрозой, Аквамену придётся помочь сбежать из тюрьмы младшему брату, которого он сам туда и посадил.

Страна: США
Студия: Atomic Monster, DC Entertainment, Safran Company, The, Warner Bros.
Продолжительность: 02:04:08
Перевод: Дублированный, профессиональный многоголосый
Субтитры: Русcкие (Forced, Full), английские (Full, SDH)

Файл
Формат: Matroska
Качество: BDRemux 1080p
Видео: 1920x1080 at 23.976 fps, MPEG-4 AVC, ~22900 kbps
Аудио 1: AC3, 6 ch, 48.0 kHz, 384 Kbps - Русский дублированный (SC Produb)
Аудио 2: E-AC3, 6 ch, 48.0 kHz, 384 Kbps - Русский дублированный (SC Produb)
Аудио 3: AC3, 2 ch, 48.0 kHz, 192 Kbps - Русский дублированный (Любительский)
Аудио 4: AC-3, 6 ch, 48.0 kHz, 384 Kbps - Русский MVO (Jaskier)
Аудио 5: AC-3, 6 ch, 48.0 kHz, 448 Kbps - Русский MVO (TVShows)
Аудио 6: AC-3, 6 ch, 48.0 kHz, 448 Kbps - Русский MVO (LostFilm)
Аудио 7: TrueHD Atmos, 8 ch, 48.0 kHz, 2875 kbps - Английский
Аудио 8: AC3, 6 ch, 48.0 kHz, 448 kbps - Английский
Формат субтитров: softsub (SRT)

* в закадре Jaskier героя Джейсона Мамоа озвучивает Иван Жарков ("Тор")
* О дублированный (Любительский) -Роли озвучивали: Денис Беспалый, Александр Гаврилин, Даниил Эльдаров, Александр Носков, Ольга Зубкова и др.
Дубляж был взят с пиратского сайта, где были 3 рекламные вставки (5:22, 1:14:55 и 1:20:11), подменяющие диалоги персонажей. Эти три рекламных диалога были заменены на официальный дубляж SC Produb. Рекламы нет!

Аквамен и потерянное царство / Aquaman and the Lost Kingdom (2023) BDRemux 1080p от селезень | D, P

Авторизуйтесь для получения доступа к скачиванию

Нет аккаунта? Регистрация открыта и займёт меньше минуты

Вход Регистрация

General
Unique ID : 196652537759731990571784833442432639352 (0x93F1E6AF37EA833BD959E4FBADD76178)
Complete name : H:\VideoH\Aquaman.and.the.Lost.Kingdom.2023.BDREMUX.1080p.seleZen.mkv
Format : Matroska
Format version : Version 4
File size : 24.8 GiB
Duration : 2 h 4 min
Overall bit rate mode : Variable
Overall bit rate : 28.6 Mb/s
Frame rate : 23.976 FPS
Movie name : Aquaman and the Lost Kingdom 2023 from seleZen
Encoded date : 2024-03-08 09:55:59 UTC
Writing application : mkvmerge v80.0 ('Roundabout') 64-bit
Writing library : libebml v1.4.4 + libmatroska v1.7.1

Video
ID : 1
Format : AVC
Format/Info : Advanced Video Codec
Format profile : [email protected]
Format settings : CABAC / 2 Ref Frames
Format settings, CABAC : Yes
Format settings, Reference : 2 frames
Format settings, Slice coun : 4 slices per frame
Codec ID : V_MPEG4/ISO/AVC
Duration : 2 h 4 min
Bit rate mode : Variable
Bit rate : 22.9 Mb/s
Width : 1 920 pixels
Height : 1 080 pixels
Display aspect ratio : 16:9
Frame rate mode : Constant
Frame rate : 23.976 (24000/1001) FPS
Color space : YUV
Chroma subsampling : 4:2:0
Bit depth : 8 bits
Scan type : Progressive
Bits/(Pixel*Frame) : 0.461
Time code of first frame : 00:59:59:00
Stream size : 19.9 GiB (80%)
Language : English
Default : Yes
Forced : No

Audio #1
ID : 2
Format : AC-3
Format/Info : Audio Coding 3
Commercial name : Dolby Digital
Codec ID : A_AC3
Duration : 2 h 4 min
Bit rate mode : Constant
Bit rate : 384 kb/s
Channel(s) : 6 channels
Channel layout : L R C LFE Ls Rs
Sampling rate : 48.0 kHz
Frame rate : 31.250 FPS (1536 SPF)
Compression mode : Lossy
Stream size : 341 MiB (1%)
Title : Dub_SC Produb
Language : Russian
Service kind : Complete Main
Default : Yes
Forced : No

Audio #2
ID : 3
Format : E-AC-3
Format/Info : Enhanced AC-3
Commercial name : Dolby Digital Plus
Codec ID : A_EAC3
Duration : 2 h 4 min
Bit rate mode : Constant
Bit rate : 384 kb/s
Channel(s) : 6 channels
Channel layout : L R C LFE Ls Rs
Sampling rate : 48.0 kHz
Frame rate : 31.250 FPS (1536 SPF)
Compression mode : Lossy
Stream size : 341 MiB (1%)
Title : Dub_SC Produb
Language : Russian
Service kind : Complete Main
Default : No
Forced : No

Audio #3
ID : 4
Format : AC-3
Format/Info : Audio Coding 3
Commercial name : Dolby Digital
Codec ID : A_AC3
Duration : 2 h 4 min
Bit rate mode : Constant
Bit rate : 192 kb/s
Channel(s) : 2 channels
Channel layout : L R
Sampling rate : 48.0 kHz
Frame rate : 31.250 FPS (1536 SPF)
Compression mode : Lossy
Stream size : 170 MiB (1%)
Title : Dub_Любительский
Language : Russian
Service kind : Complete Main
Default : No
Forced : No

Audio #4
ID : 5
Format : AC-3
Format/Info : Audio Coding 3
Commercial name : Dolby Digital
Codec ID : A_AC3
Duration : 2 h 4 min
Bit rate mode : Constant
Bit rate : 384 kb/s
Channel(s) : 6 channels
Channel layout : L R C LFE Ls Rs
Sampling rate : 48.0 kHz
Frame rate : 31.250 FPS (1536 SPF)
Compression mode : Lossy
Stream size : 341 MiB (1%)
Title : MVO_Jaskier
Language : Russian
Service kind : Complete Main
Default : No
Forced : No

Audio #5
ID : 6
Format : AC-3
Format/Info : Audio Coding 3
Commercial name : Dolby Digital
Codec ID : A_AC3
Duration : 2 h 4 min
Bit rate mode : Constant
Bit rate : 448 kb/s
Channel(s) : 6 channels
Channel layout : L R C LFE Ls Rs
Sampling rate : 48.0 kHz
Frame rate : 31.250 FPS (1536 SPF)
Compression mode : Lossy
Stream size : 398 MiB (2%)
Title : MVO_TVShows
Language : Russian
Service kind : Complete Main
Default : No
Forced : No

Audio #6
ID : 7
Format : AC-3
Format/Info : Audio Coding 3
Commercial name : Dolby Digital
Codec ID : A_AC3
Duration : 2 h 4 min
Bit rate mode : Constant
Bit rate : 448 kb/s
Channel(s) : 6 channels
Channel layout : L R C LFE Ls Rs
Sampling rate : 48.0 kHz
Frame rate : 31.250 FPS (1536 SPF)
Compression mode : Lossy
Stream size : 398 MiB (2%)
Title : MVO_LostFilm
Language : Russian
Service kind : Complete Main
Default : No
Forced : No

Audio #7
ID : 8
Format : MLP FBA 16-ch
Format/Info : Meridian Lossless Packing FBA with 16-channel presentation
Commercial name : Dolby TrueHD with Dolby Atmos
Codec ID : A_TRUEHD
Duration : 2 h 4 min
Bit rate mode : Variable
Bit rate : 2 875 kb/s
Maximum bit rate : 4 188 kb/s
Channel(s) : 8 channels
Channel layout : L R C LFE Ls Rs Lb Rb
Sampling rate : 48.0 kHz
Frame rate : 1 200.000 FPS (40 SPF)
Compression mode : Lossless
Stream size : 2.49 GiB (10%)
Title : Original
Language : English
Default : No
Forced : No
Number of dynamic objects : 11
Bed channel count : 1 channel
Bed channel configuration : LFE

Audio #8
ID : 9
Format : AC-3
Format/Info : Audio Coding 3
Commercial name : Dolby Digital
Codec ID : A_AC3
Duration : 2 h 4 min
Bit rate mode : Constant
Bit rate : 448 kb/s
Channel(s) : 6 channels
Channel layout : L R C LFE Ls Rs
Sampling rate : 48.0 kHz
Frame rate : 31.250 FPS (1536 SPF)
Compression mode : Lossy
Stream size : 398 MiB (2%)
Language : English
Service kind : Complete Main
Default : No
Forced : No

Text #1
ID : 10
Format : UTF-8
Codec ID : S_TEXT/UTF8
Codec ID/Info : UTF-8 Plain Text
Duration : 1 h 56 min
Bit rate : 1 b/s
Frame rate : 0.003 FPS
Count of elements : 20
Stream size : 906 Bytes (0%)
Title : Forced
Language : Russian
Default : No
Forced : Yes

Text #2
ID : 11
Format : UTF-8
Codec ID : S_TEXT/UTF8
Codec ID/Info : UTF-8 Plain Text
Duration : 2 h 3 min
Bit rate : 59 b/s
Frame rate : 0.139 FPS
Count of elements : 1025
Stream size : 53.2 KiB (0%)
Title : Full
Language : Russian
Default : No
Forced : No

Text #3
ID : 12
Format : UTF-8
Codec ID : S_TEXT/UTF8
Codec ID/Info : UTF-8 Plain Text
Duration : 1 h 57 min
Bit rate : 47 b/s
Frame rate : 0.169 FPS
Count of elements : 1192
Stream size : 41.0 KiB (0%)
Title : Full
Language : English
Default : No
Forced : No

Text #4
ID : 13
Format : UTF-8
Codec ID : S_TEXT/UTF8
Codec ID/Info : UTF-8 Plain Text
Duration : 1 h 57 min
Bit rate : 58 b/s
Frame rate : 0.235 FPS
Count of elements : 1660
Stream size : 50.8 KiB (0%)
Title : SDH
Language : English
Default : No
Forced : No

Menu
00:00:00.000 : en:Chapter 01
00:08:42.105 : en:Chapter 02
00:20:16.966 : en:Chapter 03
00:29:05.661 : en:Chapter 04
00:39:39.252 : en:Chapter 05
00:50:52.007 : en:Chapter 06
00:57:51.051 : en:Chapter 07
01:11:52.433 : en:Chapter 08
01:21:06.945 : en:Chapter 09
01:30:31.426 : en:Chapter 10
01:40:43.037 : en:Chapter 11
01:52:54.476 : en:Chapter 12

Другие фильмы
У данной публикации пока нет комментариев.
Будь первым, оставь своё мнение в комментариях!
Информация
Посетители, находящиеся в группе Гости, не могут оставлять комментарии к данной публикации.
Самый популярный релиз недели
Донаты
Мы в соц. сетях / RSS

Лучшие релизы месяца
Лучшие SD недели
Лучшие 720p недели
Лучшие 1080p недели
Лучшие 4K недели
Вы недавно смотрели
Реклама
Последние комментарии
...

Bonzo

14 июня 2024 14:52

...

rmzshka

13 июня 2024 17:48

...

rmzshka

13 июня 2024 12:24

...

LisNick

13 июня 2024 08:45

...

SkySpirit

8 июня 2024 19:54

Реклама