+8

Виртуальная реальность / Чистые мысли / ClearMind (2024) WEB-DLRip-AVC от DoMiNo & селезень | D, P2

Информация о фильме
Название: Виртуальная реальность / Чистые мысли
Оригинальное название: ClearMind
Год выпуска: 2024
Жанр: триллер, комедия, детектив
Режиссер: Ребекка Эскрейс / Rebecca Eskreis
В ролях: Роб Бенедикт, Ребекка Крескофф, Токс Олагундойе, Шона Кофуд, Кадим Хардисон, Дженн Лион, Джессика Мераз, Алек Мапа, Мэтт Питерс, Зайя Уайт

О фильме:
После цепочки трагических событий Нора решает пройти терапию в виртуальной реальности, чтобы в параллельной вселенной отомстить бывшим друзьям, которые, по её мнению, причастны к несчастьям. Но вскоре границы между виртуальным миром и реальностью начинают стираться, и эксперимент превращается в смертельную игру на выживание.

Выпущено: США, Film Camp Productions, River Place Productions
Продолжительность: 01:25:06
Перевод 1: Дублированный | KION
Перевод 2: Профессиональный (двухголосый, закадровый) | ViruseProject | 18+
Субтитры: Русские (Full -AI), Английские

Файл
Формат: Matroska
Качество: WEB-DLRip-AVC
Видео: 1024×428 at 23.976 fps, [email protected], ~1662 kbps
Аудио 1: AC3, 6 ch, ~448 kbps — | Русский | Виртуальная реальность / Чистые мысли / ClearMind (2024) WEB-DLRip-AVC от DoMiNo & селезень | D, P2 | DUB
Аудио 2: AC3, 2 ch, ~192 kbps — | Русский | | DVO
Формат субтитров: softsub (SRT)

Авторизуйтесь для получения доступа к скачиванию

Нет аккаунта? Регистрация открыта и займёт меньше минуты

Вход Регистрация

General
Unique ID: 44643013794683451888465064715083247707 (0×2195EE8461C385AEBC3CB15025DAF05B)
Complete name: S: ClearMind.2024.WEB-DLRip.x264.seleZen.mkv
Format: Matroska
Format version: Version 4
File size: 1.37 GiB
Duration: 1 h 25 min
Overall bit rate: 2 304 kb/s
Frame rate: 23.976 FPS
Movie name: ClearMind.2024.WEB-DLRip.x264.seleZen
Encoded date: 14.06.2024 05:35:58 UTC
Writing application: mkvmerge v85.0 ('Shame For You') 64-bit
Writing library: libebml v1.4.5 + libmatroska v1.7.1
Cover: Yes
Attachments: cover.jpg / small_cover.jpg

Video
ID: 1
Format: AVC
Format/Info: Advanced Video Codec
Format profile: [email protected]
Format settings: CABAC / 12 Ref Frames
Format settings, CABAC: Yes
Format settings, Reference: 12 frames
Codec ID: V_MPEG4/ISO/AVC
Duration: 1 h 25 min
Bit rate: 1 662 kb/s
Width: 1 024 pixels
Height: 428 pixels
Display aspect ratio: 2.39:1
Frame rate mode: Constant
Frame rate: 23.976 (24000/1001) FPS
Color space: YUV
Chroma subsampling: 4:2:0
Bit depth: 8 bits
Scan type: Progressive
Bits/(Pixel*Frame): 0.158
Stream size: 1 012 MiB (72%)
Title: -=DoMiNo=-
Writing library: x264 core 164 r3179+58M 2d8d988 t_mod_New [(8 & 10)-DoMiNo- X86_64]
Encoding settings: cabac=1 / ref=12 / deblock=1:-2:-1 / analyse=0×3:0×133 / me=umh / subme=10 / psy=1 / fade_compensate=0.00 / psy_rd=1.00:0.00 / mixed_ref=1 / me_range=32 / chroma_me=1 / trellis=2 / 8×8dct=1 / cqm=0 / deadzone=21,11 / fast_pskip=0 / chroma_qp_offset=-2 / threads=13 / lookahead_threads=3 / sliced_threads=0 / nr=0 / decimate=0 / interlaced=0 / bluray_compat=0 / constrained_intra=0 / fgo=0 / bframes=10 / b_pyramid=2 / b_adapt=2 / b_bias=0 / direct=1 / weightb=1 / open_gop=0 / weightp=2 / keyint=250 / keyint_min=23 / scenecut=40 / intra_refresh=0 / rc_lookahead=60 / rc=crf / mbtree=0 / crf=18.0000 / qcomp=0.60 / qpmin=0:0:0 / qpmax=69:69:69 / qpstep=4 / vbv_maxrate=50000 / vbv_bufsize=62500 / crf_max=0.0 / nal_hrd=none / filler=0 / ip_ratio=1.40 / pb_ratio=1.30 / aq=3:0.90 / aq-sensitivity=10.00 / aq-factor=1.00:1.00:1.00:1.00 / aq2=0 / aq3=0
Language: English
Default: Yes
Forced: No

Audio #1
ID: 2
Format: AC-3
Format/Info: Audio Coding 3
Commercial name: Dolby Digital
Codec ID: A_AC3
Duration: 1 h 25 min
Bit rate mode: Constant
Bit rate: 448 kb/s
Channel (s): 6 channels
Channel layout: L R C LFE Ls Rs
Sampling rate: 48.0 kHz
Frame rate: 31.250 FPS (1536 SPF)
Compression mode: Lossy
Stream size: 272 MiB (19%)
Title: DUB
Language: Russian
Service kind: Complete Main
Default: Yes
Forced: No
Dialog Normalization: -27 dB
compr: -0.28 dB
cmixlev: -3.0 dB
surmixlev: -3 dB
mixlevel: 81 dB
roomtyp: 3
ltrtcmixlev: -3.0 dB
ltrtsurmixlev: -3.0 dB
lorocmixlev: -3.0 dB
lorosurmixlev: -4.5 dB
dialnorm_Average: -27 dB
dialnorm_Minimum: -27 dB
dialnorm_Maximum: -27 dB

Audio #2
ID: 3
Format: AC-3
Format/Info: Audio Coding 3
Commercial name: Dolby Digital
Codec ID: A_AC3
Duration: 1 h 25 min
Bit rate mode: Constant
Bit rate: 192 kb/s
Channel (s): 2 channels
Channel layout: L R
Sampling rate: 48.0 kHz
Frame rate: 31.250 FPS (1536 SPF)
Compression mode: Lossy
Stream size: 117 MiB (8%)
Title: ViruseProject
Language: Russian
Service kind: Complete Main
Default: No
Forced: No
Dialog Normalization: -31 dB
dialnorm_Average: -31 dB
dialnorm_Minimum: -31 dB
dialnorm_Maximum: -31 dB

Text #1
ID: 4
Format: UTF-8
Codec ID: S_TEXT/UTF8
Codec ID/Info: UTF-8 Plain Text
Duration: 1 h 21 min
Bit rate: 127 b/s
Frame rate: 0.428 FPS
Count of elements: 2094
Stream size: 76.2 KiB (0%)
Title: Full
Language: Russian
Default: No
Forced: No

Text #2
ID: 5
Format: UTF-8
Codec ID: S_TEXT/UTF8
Codec ID/Info: UTF-8 Plain Text
Duration: 1 h 24 min
Bit rate: 96 b/s
Frame rate: 0.302 FPS
Count of elements: 1526
Stream size: 59.8 KiB (0%)
Language: English
Default: No
Forced: No

Menu
00:00:00.000: en: Chapter 01
00:05:50.000: en: Chapter 02
00:11:40.000: en: Chapter 03
00:17:30.000: en: Chapter 04
00:23:20.000: en: Chapter 05
00:29:10.000: en: Chapter 06
00:35:00.000: en: Chapter 07
00:40:50.000: en: Chapter 08
00:46:40.000: en: Chapter 09
00:52:30.000: en: Chapter 10
00:58:20.000: en: Chapter 11
01:04:10.000: en: Chapter 12
01:10:00.000: en: Chapter 13
01:15:50.000: en: Chapter 14
01:21:40.000: en: Chapter 15

Другие фильмы
У данной публикации пока нет комментариев.
Будь первым, оставь своё мнение в комментариях!
Информация
Посетители, находящиеся в группе Гости, не могут оставлять комментарии к данной публикации.
Самый популярный релиз недели
Донаты
Мы в соц. сетях / RSS

Лучшие релизы месяца
Лучшие SD недели
Лучшие 720p недели
Лучшие 1080p недели
Лучшие 4K недели
Вы недавно смотрели
Реклама
Последние комментарии
...

rmzshka

12 июля 2024 11:30

...

Rustik99

12 июля 2024 10:11

...

-=DoMiNo=-

11 июля 2024 23:42

...

rmzshka

11 июля 2024 11:28

...

-=DoMiNo=-

10 июля 2024 15:08

Реклама