+7

Экзистенция / eXistenZ (1999) UHD BDRemux 2160p от селезень | 4K | HDR | P2

Информация о фильме
Название: Экзистенция
Оригинальное название: eXistenZ
Год выхода: 1999
Жанр: ужасы, фантастика, триллер, детектив
Режиссер: Дэвид Кроненберг
В ролях: Дженнифер Джейсон Ли, Джуд Лоу, Иэн Холм, Уиллем Дефо, Дон МакКеллар, Каллум Кит Ренни, Кристофер Экклстон, Сара Полли, Роберт А. Силверман, Оскар Хсю

О фильме: На закрытой презентации игры виртуальной реальности под названием «Экзистенция» на ее великолепную создательницу Аллегру Гелла совершает покушение сумасшедший убийца, который хочет уничтожить и ее игру! Вынужденная спасаться бегством, Аллегра подключает младшего сотрудника к тестированию поврежденной системы тем, что … убеждает его сыграть в Экзистенцию вместе с ней! События разворачиваются так, что угроза их реальной жизни пересекается с виртуальными событиями в игре.

Страна: Канада, Великобритания, Франция
Студия: Alliance Atlantis Communications, Canadian Television Fund, Dimension Films, Natural Nylon Entertainment, Serendipity Point Films, Téléfilm Canada, The Harold Greenberg Fund, The Movie Network (TMN), Union Générale Cinématographique (UGC)
Продолжительность: 01:37:02
Перевод: Профессиональный двухголосый | Cinema Prestige

Качество: BDRemux 2160p
Видео: 3840x2160 at 23.976 fps, MPEG-H HEVC HDR Video, 78600 kbps
Аудио #01: 48 kHz, AC3, 5.1, 384 Kbps | Профессиональный двухголосый | Cinema Prestige | RUS |Экзистенция / eXistenZ (1999) UHD BDRemux 2160p от селезень | 4K | HDR | P2
Аудио #02: 48 kHz, DTS-HD MA, 5.1, 4032 Kbps | Оригинал | ENG |
Субтитры: Русские, Английские

Экзистенция / eXistenZ (1999) UHD BDRemux 2160p от селезень | 4K | HDR | P2

Авторизуйтесь для получения доступа к скачиванию

Нет аккаунта? Регистрация открыта и займёт меньше минуты

Вход Регистрация

General
Unique ID : 255469881066460684170975918919352359161 (0xC031B59A281C136331F0112B7D7C98F9)
Complete name : H:\VideoH\eXistenZ.1999.BDREMUX.2160p.HDR.seleZen.mkv
Format : Matroska
Format version : Version 4
File size : 56.3 GiB
Duration : 1 h 37 min
Overall bit rate mode : Variable
Overall bit rate : 83.0 Mb/s
Frame rate : 23.976 FPS
Movie name : eXistenZ 1999 from seleZen
Encoded date : 2024-02-25 20:20:29 UTC
Writing application : mkvmerge v80.0 ('Roundabout') 64-bit
Writing library : libebml v1.4.4 + libmatroska v1.7.1

Video
ID : 1
ID in the original source m : 4113 (0x1011)
Format : HEVC
Format/Info : High Efficiency Video Coding
Format profile : Main [email protected]@High
HDR format : SMPTE ST 2086, HDR10 compatible
Codec ID : V_MPEGH/ISO/HEVC
Duration : 1 h 37 min
Bit rate : 78.6 Mb/s
Width : 3 840 pixels
Height : 2 160 pixels
Display aspect ratio : 16:9
Frame rate mode : Constant
Frame rate : 23.976 (24000/1001) FPS
Color space : YUV
Chroma subsampling : 4:2:0 (Type 2)
Bit depth : 10 bits
Bits/(Pixel*Frame) : 0.395
Stream size : 53.3 GiB (95%)
Language : English
Default : Yes
Forced : No
Color range : Limited
Color primaries : BT.2020
Transfer characteristics : PQ
Matrix coefficients : BT.2020 non-constant
Mastering display color pri : BT.2020
Mastering display luminance : min: 0.0001 cd/m2, max: 4000 cd/m2
Maximum Content Light Level : 1000 cd/m2
Maximum Frame-Average Light : 400 cd/m2
Original source medium : Blu-ray

Audio #1
ID : 2
Format : AC-3
Format/Info : Audio Coding 3
Commercial name : Dolby Digital
Codec ID : A_AC3
Duration : 1 h 37 min
Bit rate mode : Constant
Bit rate : 384 kb/s
Channel(s) : 6 channels
Channel layout : L R C LFE Ls Rs
Sampling rate : 48.0 kHz
Frame rate : 31.250 FPS (1536 SPF)
Compression mode : Lossy
Stream size : 266 MiB (0%)
Title : DVO_Cinema Prestige
Language : Russian
Service kind : Complete Main
Default : Yes
Forced : No

Audio #2
ID : 3
ID in the original source m : 4352 (0x1100)
Format : DTS XLL
Format/Info : Digital Theater Systems
Commercial name : DTS-HD Master Audio
Codec ID : A_DTS
Duration : 1 h 37 min
Bit rate mode : Variable
Bit rate : 4 032 kb/s
Channel(s) : 6 channels
Channel layout : C L R Ls Rs LFE
Sampling rate : 48.0 kHz
Frame rate : 93.750 FPS (512 SPF)
Bit depth : 24 bits
Compression mode : Lossless
Stream size : 2.73 GiB (5%)
Title : Original
Language : English
Default : No
Forced : No
Original source medium : Blu-ray

Text #1
ID : 4
Format : UTF-8
Codec ID : S_TEXT/UTF8
Codec ID/Info : UTF-8 Plain Text
Duration : 1 h 30 min
Bit rate : 85 b/s
Frame rate : 0.201 FPS
Count of elements : 1089
Stream size : 56.6 KiB (0%)
Title : Full v.1
Language : Russian
Default : No
Forced : No

Text #2
ID : 5
Format : UTF-8
Codec ID : S_TEXT/UTF8
Codec ID/Info : UTF-8 Plain Text
Duration : 1 h 32 min
Bit rate : 76 b/s
Frame rate : 0.153 FPS
Count of elements : 854
Stream size : 52.3 KiB (0%)
Title : Full v.2
Language : Russian
Default : No
Forced : No

Text #3
ID : 6
Format : UTF-8
Codec ID : S_TEXT/UTF8
Codec ID/Info : UTF-8 Plain Text
Duration : 1 h 30 min
Bit rate : 48 b/s
Frame rate : 0.190 FPS
Count of elements : 1029
Stream size : 32.0 KiB (0%)
Language : English
Default : No
Forced : No

Menu
00:00:00.000 : en:Chapter 01
00:20:06.455 : en:Chapter 02
00:38:24.135 : en:Chapter 03
00:56:08.198 : en:Chapter 04
01:12:31.305 : en:Chapter 05
01:28:02.277 : en:Chapter 06

Другие фильмы
У данной публикации пока нет комментариев.
Будь первым, оставь своё мнение в комментариях!
Информация
Посетители, находящиеся в группе Гости, не могут оставлять комментарии к данной публикации.
Самый популярный релиз недели
Донаты
Мы в соц. сетях / RSS

Лучшие релизы месяца
Лучшие SD недели
Лучшие 720p недели
Лучшие 1080p недели
Лучшие 4K недели
Вы недавно смотрели
Реклама
Последние комментарии
...

-=DoMiNo=-

9 апреля 2024 17:43

...

supermehanik

9 апреля 2024 16:22

...

selezinka

5 апреля 2024 16:20

...

Kirk1991

30 марта 2024 15:04

...

Robot

22 марта 2024 09:33

Реклама