+10

Вонка / Wonka (2023) HDRip от DoMiNo & селезень | D

Информация о фильме
Название: Вонка
Оригинальное название: Wonka
Год выхода: 2023
Жанр: Мюзикл, фэнтези, комедия, приключения, семейный
Режиссер: Пол Кинг
В ролях: Тимоти Шаламе, Gustave Die, Мюррэй МакАртур, Пол Дж. Рэймонд, Берти Каплан, Изи Сатти, Кобна Холдбрук-Смит, Матильда Такер, Том Дэвис, Оливия Колман

О фильме:
Задолго до того, как мальчик Чарли вытянул свой счастливый билет и познакомился с удивительным владельцем не менее удивительной шоколадной фабрики, Вилли Вонка был молодым фантазером, великим изобретателем, волшебником и непревзойденным изготовителем шоколада, доступного всем и каждому. Однажды он знакомится с представителем племени пигмеев умпа-лумпа и узнает о существовании страны Лумпаландии, полной опасных хищников и самых экзотических вкусов. Следуя за своей мечтой, Вонка приступает к строительству грандиозной фабрики шоколада, равной которой не будет во всем мире.«Вонка» (2023) — фэнтезийный мюзикл с Тимоти Шаламе в роли эксцентричного шоколатье Вилли Вонки из знаменитой повести Роальда Даля «Чарли и шоколадная фабрика».

Страна: США, Великобритания, Канада | Warner Bros.
Продолжительность: 01:56:16
Перевод: Дублированный | Официальный | Bravo Records Georgia
Субтитры: Русские (Forced -хардсаб, Full), Английские - отдельно

Файл
Формат: AVI
Качество: HDRip
Видео: 720x304 at 23.976 fps, XviD 69, ~1402 kbps
Аудио: AC3, 6 ch, ~384 kbps - | Русский | Вонка / Wonka (2023) HDRip от DoMiNo & селезень | D
Формат субтитров: softsub (SRT)

Авторизуйтесь для получения доступа к скачиванию

Нет аккаунта? Регистрация открыта и займёт меньше минуты

Вход Регистрация

General
Complete name: I:\Wonka.2023.DUB.seleZen\Wonka.2023.DUB.seleZen.avi
Format: AVI
Format/Info: Audio Video Interleave
Format settings: BitmapInfoHeader / WaveFormatEx
File size: 1.46 GiB
Duration: 1 h 56 min
Overall bit rate: 1 793 kb/s
Frame rate: 23.976 FPS
Movie name: Wonka 2023 from seleZen
Writing application: VirtualDubModRus 1.5.10.2 (build 2542/release)
Writing library: VirtualDubMod build 2542/release

Video
ID: 0
Format: MPEG-4 Visual
Format profile: Advanced Simple@L5
Format settings: BVOP1 / Custom Matrix
Format settings, BVOP: 1
Format settings, QPel: No
Format settings, GMC: No warppoints
Format settings, Matrix: Custom
Codec ID: XVID
Codec ID/Hint: XviD
Duration: 1 h 56 min
Bit rate: 1 402 kb/s
Width: 720 pixels
Height: 304 pixels
Display aspect ratio: 2.40:1
Frame rate: 23.976 (24000/1001) FPS
Color space: YUV
Chroma subsampling: 4:2:0
Bit depth: 8 bits
Scan type: Progressive
Compression mode: Lossy
Bits/(Pixel*Frame): 0.267
Stream size: 1.14 GiB (78%)
Writing library: XviD 69

Audio
ID: 1
Format: AC-3
Format/Info: Audio Coding 3
Commercial name: Dolby Digital
Codec ID: 2000
Duration: 1 h 56 min
Bit rate mode: Constant
Bit rate: 384 kb/s
Channel (s): 6 channels
Channel layout: L R C LFE Ls Rs
Sampling rate: 48.0 kHz
Frame rate: 31.250 FPS (1536 SPF)
Bit depth: 16 bits
Compression mode: Lossy
Stream size: 319 MiB (21%)
Alignment: Split across interleaves
Interleave, duration: 80 ms (1.92 video frames)
Interleave, preload duratio: 560 ms
Service kind: Complete Main

Другие фильмы
У данной публикации пока нет комментариев.
Будь первым, оставь своё мнение в комментариях!
Информация
Посетители, находящиеся в группе Гости, не могут оставлять комментарии к данной публикации.
Самый популярный релиз недели
Донаты
Мы в соц. сетях / RSS

Лучшие релизы месяца
Лучшие SD недели
Лучшие 720p недели
Лучшие 1080p недели
Лучшие 4K недели
Вы недавно смотрели
Реклама
Последние комментарии
...

rmzshka

12 июля 2024 11:30

...

Rustik99

12 июля 2024 10:11

...

-=DoMiNo=-

11 июля 2024 23:42

...

rmzshka

11 июля 2024 11:28

...

-=DoMiNo=-

10 июля 2024 15:08

Реклама