+18

Миграция / Migration (2023) BDRip 720p от DoMiNo селезень | D, P

Информация о фильме
Название: Миграция
Оригинальное название: Migration
Год выпуска: 2023
Жанр: мультфильм, приключения, комедия, фэнтези
Режиссер: Бенжамин Реннер / Benjamin Renner, Гейло Хомси / Guylo Homsy
В ролях: Кумэйл Нанджиани, Элизабет Бэнкс, Изабела Монер, Дэнни ДеВито, Кэрол Кэйн, Аквафина, Кигэн-Майкл Ки, Дэвид Митчелл, Борис Реленже, Бенжамен Реннер, Дебра Уилсон, Крис Рено, Карлос Алазраки, Джон ДеМита, Ларэйн Ньюман

О фильме:
Семейство кряков находится в затруднительном положении: пока отец Мак Маллард доволен тем, что его родные всегда будут в безопасности, живя в пруду в Новой Англии, мама Пэм стремится встряхнуть их и показать своим детям — сыну-подростку Даксу и маленькой дочке Гвен — каким большим и многогранным может быть мир.
После того, как семейство мигрирующих уток приземляется на их пруд с захватывающими рассказами о далёких местах, Пэм уговаривает Мака отправиться в семейное путешествие через Нью-Йорк на тропическую Ямайку. Но всё было бы слишком просто, если бы их планам суждено было сбыться.

Выпущено: США, Франция, Канада / Universal Pictures, Illumination Entertainment
Продолжительность: 01:22:54
Перевод 1: Дубляж (неофициальный) | Red Head Sound
Перевод 2: Профессиональный (многоголосый, закадровый) | Jaskier
Перевод 3: Профессиональный (многоголосый, закадровый) | TVShows
Субтитры: Русские (Forced, Full), Английские (Full, SDH)

Файл
Формат: Matroska
Качество: BDRip 720p
Видео: 1280x536 at 23.976 fps, [email protected], ~3916 kbps
Аудио 1: AC3, 6 ch, ~640 kbps - | Русский | Миграция / Migration (2023) BDRip 720p от DoMiNo селезень | D, P | Red Head Sound
Аудио 2: AC3, 6 ch, ~384 kbps - | Русский | | Jaskier
Аудио 3: AC3, 6 ch, ~384 kbps - | Русский | | TVShows
Аудио 4: AC3, 6 ch, ~640 kbps - | Английский | | Original
Формат субтитров: softsub (SRT)

Авторизуйтесь для получения доступа к скачиванию

Нет аккаунта? Регистрация открыта и займёт меньше минуты

Вход Регистрация

General
Unique ID : 232096177877601830405912053231890716569 (0xAE9C190FA96B271BA6B3E910A40BD799)
Complete name : T:Migration.2023.DUB.BDRip.720p.x264.seleZen.mkv
Format : Matroska
Format version : Version 4
File size : 3.46 GiB
Duration : 1 h 22 min
Overall bit rate : 5 967 kb/s
Frame rate : 23.976 FPS
Movie name : Migration.2023.DUB.BDRip.720p.x264.seleZen
Encoded date : 2024-02-28 10:07:55 UTC
Writing application : mkvmerge v82.0 ('I'm The President') 64-bit
Writing library : libebml v1.4.5 + libmatroska v1.7.1
Cover : Yes
Attachments : cover.jpg / small_cover.jpg

Video
ID : 1
Format : AVC
Format/Info : Advanced Video Codec
Format profile : [email protected]
Format settings : CABAC / 12 Ref Frames
Format settings, CABAC : Yes
Format settings, Reference : 12 frames
Codec ID : V_MPEG4/ISO/AVC
Duration : 1 h 22 min
Bit rate : 3 916 kb/s
Width : 1 280 pixels
Height : 536 pixels
Display aspect ratio : 2.40:1
Frame rate mode : Constant
Frame rate : 23.976 (24000/1001) FPS
Color space : YUV
Chroma subsampling : 4:2:0
Bit depth : 8 bits
Scan type : Progressive
Bits/(Pixel*Frame) : 0.238
Stream size : 2.27 GiB (66%)
Title : -=DoMiNo=-
Writing library : x264 core 164 r3179 12426f5
Encoding settings : cabac=1 / ref=12 / deblock=1:-2:-2 / analyse=0x3:0x133 / me=umh / subme=10 / psy=1 / psy_rd=1.03:0.05 / mixed_ref=1 / me_range=32 / chroma_me=1 / trellis=2 / 8x8dct=1 / cqm=0 / deadzone=21,11 / fast_pskip=0 / chroma_qp_offset=-3 / threads=17 / lookahead_threads=4 / sliced_threads=0 / nr=0 / decimate=0 / interlaced=0 / bluray_compat=0 / constrained_intra=0 / bframes=10 / b_pyramid=2 / b_adapt=2 / b_bias=0 / direct=1 / weightb=1 / open_gop=0 / weightp=2 / keyint=250 / keyint_min=23 / scenecut=40 / intra_refresh=0 / rc_lookahead=60 / rc=crf / mbtree=0 / crf=18.0 / qcomp=0.60 / qpmin=0 / qpmax=69 / qpstep=4 / vbv_maxrate=50000 / vbv_bufsize=62500 / crf_max=0.0 / nal_hrd=none / filler=0 / ip_ratio=1.40 / pb_ratio=1.30 / aq=2:0.90
Language : English
Default : Yes
Forced : No

Audio #1
ID : 2
Format : AC-3
Format/Info : Audio Coding 3
Commercial name : Dolby Digital
Codec ID : A_AC3
Duration : 1 h 22 min
Bit rate mode : Constant
Bit rate : 640 kb/s
Channel(s) : 6 channels
Channel layout : L R C LFE Ls Rs
Sampling rate : 48.0 kHz
Frame rate : 31.250 FPS (1536 SPF)
Compression mode : Lossy
Delay relative to video : 24 ms
Stream size : 379 MiB (11%)
Title : Дубляж - Red Head Sound
Language : Russian
Service kind : Complete Main
Default : Yes
Forced : No

Audio #2
ID : 3
Format : AC-3
Format/Info : Audio Coding 3
Commercial name : Dolby Digital
Codec ID : A_AC3
Duration : 1 h 22 min
Bit rate mode : Constant
Bit rate : 384 kb/s
Channel(s) : 6 channels
Channel layout : L R C LFE Ls Rs
Sampling rate : 48.0 kHz
Frame rate : 31.250 FPS (1536 SPF)
Compression mode : Lossy
Stream size : 228 MiB (6%)
Title : MVO - Jaskier
Language : Russian
Service kind : Complete Main
Default : No
Forced : No

Audio #3
ID : 4
Format : AC-3
Format/Info : Audio Coding 3
Commercial name : Dolby Digital
Codec ID : A_AC3
Duration : 1 h 22 min
Bit rate mode : Constant
Bit rate : 384 kb/s
Channel(s) : 6 channels
Channel layout : L R C LFE Ls Rs
Sampling rate : 48.0 kHz
Frame rate : 31.250 FPS (1536 SPF)
Compression mode : Lossy
Stream size : 228 MiB (6%)
Title : MVO - TVShows
Language : Russian
Service kind : Complete Main
Default : No
Forced : No

Audio #4
ID : 5
Format : AC-3
Format/Info : Audio Coding 3
Commercial name : Dolby Digital
Codec ID : A_AC3
Duration : 1 h 22 min
Bit rate mode : Constant
Bit rate : 640 kb/s
Channel(s) : 6 channels
Channel layout : L R C LFE Ls Rs
Sampling rate : 48.0 kHz
Frame rate : 31.250 FPS (1536 SPF)
Compression mode : Lossy
Stream size : 379 MiB (11%)
Title : Original
Language : English
Service kind : Complete Main
Default : No
Forced : No

Text #1
ID : 6
Format : UTF-8
Codec ID : S_TEXT/UTF8
Codec ID/Info : UTF-8 Plain Text
Duration : 1 h 12 min
Bit rate : 0 b/s
Frame rate : 0.001 FPS
Count of elements : 5
Stream size : 211 Bytes (0%)
Title : Forced
Language : Russian
Default : No
Forced : No

Text #2
ID : 7
Format : UTF-8
Codec ID : S_TEXT/UTF8
Codec ID/Info : UTF-8 Plain Text
Duration : 1 h 16 min
Bit rate : 111 b/s
Frame rate : 0.297 FPS
Count of elements : 1373
Stream size : 62.8 KiB (0%)
Title : Full
Language : Russian
Default : No
Forced : No

Text #3
ID : 8
Format : UTF-8
Codec ID : S_TEXT/UTF8
Codec ID/Info : UTF-8 Plain Text
Duration : 1 h 16 min
Bit rate : 59 b/s
Frame rate : 0.298 FPS
Count of elements : 1372
Stream size : 33.7 KiB (0%)
Title : Full
Language : English
Default : No
Forced : No

Text #4
ID : 9
Format : UTF-8
Codec ID : S_TEXT/UTF8
Codec ID/Info : UTF-8 Plain Text
Duration : 1 h 22 min
Bit rate : 71 b/s
Frame rate : 0.365 FPS
Count of elements : 1813
Stream size : 43.4 KiB (0%)
Title : SDH
Language : English
Default : No
Forced : No

Menu
00:00:00.000 : en:Chapter 01
00:04:50.707 : en:Chapter 02
00:07:42.671 : en:Chapter 03
00:12:51.020 : en:Chapter 04
00:16:18.227 : en:Chapter 05
00:20:38.237 : en:Chapter 06
00:24:04.568 : en:Chapter 07
00:28:43.847 : en:Chapter 08
00:33:57.661 : en:Chapter 09
00:35:41.139 : en:Chapter 10
00:39:22.694 : en:Chapter 11
00:44:15.653 : en:Chapter 12
00:48:39.416 : en:Chapter 13
00:53:02.388 : en:Chapter 14
00:58:43.687 : en:Chapter 15
01:04:28.948 : en:Chapter 16
01:08:28.104 : en:Chapter 17
01:10:42.321 : en:Chapter 18
01:15:53.841 : en:Chapter 19
01:17:20.469 : en:Chapter 20

Другие фильмы
У данной публикации пока нет комментариев.
Будь первым, оставь своё мнение в комментариях!
Информация
Посетители, находящиеся в группе Гости, не могут оставлять комментарии к данной публикации.
Самый популярный релиз недели
Донаты
Мы в соц. сетях / RSS

Лучшие релизы месяца
Лучшие SD недели
Лучшие 720p недели
Лучшие 1080p недели
Лучшие 4K недели
Вы недавно смотрели
Реклама
Последние комментарии
...

rmzshka

12 июля 2024 11:30

...

Rustik99

12 июля 2024 10:11

...

-=DoMiNo=-

11 июля 2024 23:42

...

rmzshka

11 июля 2024 11:28

...

-=DoMiNo=-

10 июля 2024 15:08

Реклама