+10

Из глубины / No Way Up (2024) BDRip 720p от DoMiNo & селезень | D

Информация о фильме
Название: Из глубины
Оригинальное название: No Way Up
Год выхода: 2024
Жанр: Боевик, триллер, драма, приключения
Режиссер: Клаудио Фах
В ролях: Софи Макинтош, Келси Грэммер, Филлис Логан, Колм Мини, Уильям Аттенборо, Джеймс Кэрролл Джордан, Джеремия Амур, Грэйс Неттл, Мануэль Пасифик, Дэвид Самартин, Дэвид Дж Биско, Скотт Кокер, Ли Байфорд

Описание:
Самолет терпит крушение в Тихом океане. Затонувший авиалайнер висит на краю пропасти, а выжившие оказываются в западне воздушного кармана. Запас воздуха постепенно заканчивается, и между пассажирами начинается борьба за выживание.

Страна: США
Студия: Altitude Film Entertainment, Hyprr Films, Ingenious Film Partners, Sarma Films
Продолжительность: 01:30:33
Перевод: Дублированный | Vox Records
Субтитры: Русские, английские

Файл
Формат: Matroska
Качество: BDRip 720p
Видео: 1280x534 at 24.000 fps, MPEG-4 AVC, ~4816 kbps
Аудио 1: AC3, 6 ch, ~384 kbps - | Русский | Из глубины / No Way Up (2024) BDRip 720p от DoMiNo & селезень | D | Vox Records
Аудио 2: E-AC3, 6 ch, ~384 kbps - | Русский | | Vox Records
Аудио 3: AC3, 6 ch, ~640 kbps - | Английский | | Original
Формат субтитров: softsub (SRT)

Авторизуйтесь для получения доступа к скачиванию

Нет аккаунта? Регистрация открыта и займёт меньше минуты

Вход Регистрация

x264 [info]: frame I: 986 Avg QP: 14.18 size: 90033
x264 [info]: frame P: 27842 Avg QP: 15.52 size: 42071
x264 [info]: frame B: 101568 Avg QP: 17.39 size: 19794

General
Unique ID: 102818314426132604358467028514285834664 (0×4D5A164976C62B79D389DD92815451A8)
Complete name: T: No.Way.Up.2024.BDRip.720p.x264.seleZen.mkv
Format: Matroska
Format version: Version 4
File size: 3.94 GiB
Duration: 1 h 30 min
Overall bit rate: 6 227 kb/s
Frame rate: 24.000 FPS
Movie name: No.Way.Up.2024.BDRip.720p.x264.seleZen
Encoded date: 31.05.2024 16:44:41 UTC
Writing application: mkvmerge v84.0 ('Sleeper') 64-bit
Writing library: libebml v1.4.5 + libmatroska v1.7.1
Cover: Yes
Attachments: cover.jpg / small_cover.jpg

Video
ID: 1
Format: AVC
Format/Info: Advanced Video Codec
Format profile: [email protected]
Format settings: CABAC / 12 Ref Frames
Format settings, CABAC: Yes
Format settings, Reference: 12 frames
Codec ID: V_MPEG4/ISO/AVC
Duration: 1 h 30 min
Bit rate: 4 816 kb/s
Width: 1 280 pixels
Height: 534 pixels
Display aspect ratio: 2.40:1
Frame rate mode: Constant
Frame rate: 24.000 FPS
Color space: YUV
Chroma subsampling: 4:2:0
Bit depth: 8 bits
Scan type: Progressive
Bits/(Pixel*Frame): 0.294
Stream size: 3.05 GiB (77%)
Title: -=DoMiNo=-
Writing library: x264 core 164 r3191 -DoMiNo
Encoding settings: cabac=1 / ref=12 / deblock=1:-3:-2 / analyse=0×3:0×133 / me=umh / subme=10 / psy=1 / psy_rd=1.05:0.05 / mixed_ref=1 / me_range=32 / chroma_me=1 / trellis=2 / 8×8dct=1 / cqm=0 / deadzone=21,11 / fast_pskip=0 / chroma_qp_offset=-3 / threads=17 / lookahead_threads=4 / sliced_threads=0 / nr=0 / decimate=0 / interlaced=0 / bluray_compat=0 / constrained_intra=0 / bframes=10 / b_pyramid=2 / b_adapt=2 / b_bias=0 / direct=1 / weightb=1 / open_gop=0 / weightp=2 / keyint=240 / keyint_min=24 / scenecut=40 / intra_refresh=0 / rc_lookahead=60 / rc=crf / mbtree=0 / crf=18.0 / qcomp=0.60 / qpmin=0 / qpmax=69 / qpstep=4 / vbv_maxrate=50000 / vbv_bufsize=62500 / crf_max=0.0 / nal_hrd=none / filler=0 / ip_ratio=1.35 / pb_ratio=1.25 / aq=3:0.90
Language: English
Default: Yes
Forced: No

Audio #1
ID: 2
Format: AC-3
Format/Info: Audio Coding 3
Commercial name: Dolby Digital
Codec ID: A_AC3
Duration: 1 h 30 min
Bit rate mode: Constant
Bit rate: 384 kb/s
Channel (s): 6 channels
Channel layout: L R C LFE Ls Rs
Sampling rate: 48.0 kHz
Frame rate: 31.250 FPS (1536 SPF)
Compression mode: Lossy
Stream size: 249 MiB (6%)
Title: DUB
Language: Russian
Service kind: Complete Main
Default: Yes
Forced: No
Dialog Normalization: -24 dB
compr: -0.28 dB
cmixlev: -3.0 dB
surmixlev: -3 dB
dmixmod: Lo/Ro
ltrtcmixlev: -3.0 dB
ltrtsurmixlev: -3.0 dB
lorocmixlev: -3.0 dB
lorosurmixlev: -3.0 dB
dialnorm_Average: -24 dB
dialnorm_Minimum: -24 dB
dialnorm_Maximum: -24 dB

Audio #2
ID: 3
Format: E-AC-3
Format/Info: Enhanced AC-3
Commercial name: Dolby Digital Plus
Codec ID: A_EAC3
Duration: 1 h 30 min
Bit rate mode: Constant
Bit rate: 384 kb/s
Channel (s): 6 channels
Channel layout: L R C LFE Ls Rs
Sampling rate: 48.0 kHz
Frame rate: 31.250 FPS (1536 SPF)
Compression mode: Lossy
Stream size: 249 MiB (6%)
Title: DUB
Language: Russian
Service kind: Complete Main
Default: No
Forced: No
Dialog Normalization: -24 dB
compr: -0.28 dB
dmixmod: Lo/Ro
ltrtcmixlev: -3.0 dB
ltrtsurmixlev: -3.0 dB
lorocmixlev: -3.0 dB
lorosurmixlev: -3.0 dB
dialnorm_Average: -24 dB
dialnorm_Minimum: -24 dB
dialnorm_Maximum: -24 dB

Audio #3
ID: 4
Format: AC-3
Format/Info: Audio Coding 3
Commercial name: Dolby Digital
Codec ID: A_AC3
Duration: 1 h 30 min
Bit rate mode: Constant
Bit rate: 640 kb/s
Channel (s): 6 channels
Channel layout: L R C LFE Ls Rs
Sampling rate: 48.0 kHz
Frame rate: 31.250 FPS (1536 SPF)
Compression mode: Lossy
Stream size: 415 MiB (10%)
Language: English
Service kind: Complete Main
Default: No
Forced: No
Dialog Normalization: -31 dB
cmixlev: -4.5 dB
surmixlev: -6 dB
dialnorm_Average: -31 dB
dialnorm_Minimum: -31 dB
dialnorm_Maximum: -31 dB

Text #1
ID: 5
Format: UTF-8
Codec ID: S_TEXT/UTF8
Codec ID/Info: UTF-8 Plain Text
Duration: 1 h 27 min
Bit rate: 53 b/s
Frame rate: 0.183 FPS
Count of elements: 958
Stream size: 34.2 KiB (0%)
Title: Full
Language: Russian
Default: No
Forced: No

Text #2
ID: 6
Format: UTF-8
Codec ID: S_TEXT/UTF8
Codec ID/Info: UTF-8 Plain Text
Duration: 1 h 29 min
Bit rate: 52 b/s
Frame rate: 0.293 FPS
Count of elements: 1581
Stream size: 34.8 KiB (0%)
Title: SDH
Language: English
Default: No
Forced: No

Menu
00:00:00.000: en: Глава 01
00:15:34.916: en: Глава 02
00:29:36.750: en: Глава 03
00:45:31.416: en: Глава 04
00:59:00.750: en: Глава 05
01:14:22.416: en: Глава 06

Другие фильмы
У данной публикации пока нет комментариев.
Будь первым, оставь своё мнение в комментариях!
Информация
Посетители, находящиеся в группе Гости, не могут оставлять комментарии к данной публикации.
Самый популярный релиз недели
Донаты
Мы в соц. сетях / RSS

Лучшие релизы месяца
Лучшие SD недели
Лучшие 720p недели
Лучшие 1080p недели
Лучшие 4K недели
Вы недавно смотрели
Реклама
Последние комментарии
...

rmzshka

12 июля 2024 11:30

...

Rustik99

12 июля 2024 10:11

...

-=DoMiNo=-

11 июля 2024 23:42

...

rmzshka

11 июля 2024 11:28

...

-=DoMiNo=-

10 июля 2024 15:08

Реклама