+9

В паутине страха / Cobweb (2023) BDRip 1080p от селезень | D

Информация о фильме
Название: В паутине страха
Оригинальное название: Cobweb
Год выпуска: 2023
Жанр: Ужасы, триллер
Режиссер: Сэмюэл Бодин / Samuel Bodin
В ролях: Лиззи Каплан, Энтони Старр, Клеопатра Коулмэн, Вуди Норман, Люк Самсон Бьюзи, Александра Драгова, Джей Ринкон, Антон Коттас, Стефани Томас, Живко Михайлов, Илиан Николов, Илиян Николов, Александр Аспарухов, Виктория Великова, Кейт Николс

О фильме:
Восьмилетнего Питера преследует таинственный, постоянный стук, стук из стены его спальни — стук, который, по утверждению его родителей, всецело в его воображении. По мере того, как страх Питера усиливается, он считает, что его родители могут скрывать ужасную, опасную тайну, и ставит под сомнение их доверие. А для ребенка что может быть страшнее этого?

Выпущено: США, Lionsgate, Media Capital Technologies, Point Grey Pictures, Vertigo Entertainment
Продолжительность: 01:28:05
Перевод: Дублированный | Мосфильм-Мастер
Субтитры: Русские (Forced, Full), английские (Full, SDH)

Файл
Формат: Matroska
Качество: BDRip 1080p
Видео: 1920x802 at 23.976 fps, [email protected], ~6957 kbps
Аудио 1: AC3, 6 ch, ~384 kbps - | Русский | В паутине страха / Cobweb (2023) BDRip 1080p от селезень | D | Мосфильм-Мастер
Аудио 2: DTS, 6 ch, ~1509 kbps - | Английский | | Original
Формат субтитров: softsub (SRT)

Авторизуйтесь для получения доступа к скачиванию

Нет аккаунта? Регистрация открыта и займёт меньше минуты

Вход Регистрация

General
Unique ID : 167075028374904263955621118507137874341 (0x7DB17AE1FA7BC9FA08BD338F6DCBB9A5)
Complete name : R:Cobweb.2023.DUB.BDRip.1080p.x264.seleZen.mkv
Format : Matroska
Format version : Version 4
File size : 5.45 GiB
Duration : 1 h 28 min
Overall bit rate : 8 853 kb/s
Frame rate : 23.976 FPS
Movie name : Cobweb.2023.DUB.BDRip.1080p.x264.seleZen
Encoded date : 2024-02-18 09:16:04 UTC
Writing application : mkvmerge v82.0 ('I'm The President') 64-bit
Writing library : libebml v1.4.5 + libmatroska v1.7.1
Cover : Yes
Attachments : cover.jpg / small_cover.jpg

Video
ID : 1
Format : AVC
Format/Info : Advanced Video Codec
Format profile : [email protected]
Format settings : CABAC / 5 Ref Frames
Format settings, CABAC : Yes
Format settings, Reference : 5 frames
Codec ID : V_MPEG4/ISO/AVC
Duration : 1 h 28 min
Bit rate : 6 957 kb/s
Width : 1 920 pixels
Height : 802 pixels
Display aspect ratio : 2.40:1
Frame rate mode : Constant
Frame rate : 23.976 (24000/1001) FPS
Color space : YUV
Chroma subsampling : 4:2:0
Bit depth : 8 bits
Scan type : Progressive
Bits/(Pixel*Frame) : 0.188
Stream size : 4.28 GiB (79%)
Title : MTeam
Writing library : x264 core 157 r2938 2b00a84 TnP@MTeam Mod
Encoding settings : cabac=1 / ref=5 / deblock=1:-3:-3 / analyse=0x3:0x133 / me=umh / subme=10 / psy=1 / psy_rd=1.05:0.00 / mixed_ref=1 / me_range=32 / chroma_me=1 / trellis=2 / 8x8dct=1 / cqm=0 / deadzone=21,11 / fast_pskip=0 / chroma_qp_offset=-2 / threads=12 / lookahead_threads=2 / sliced_threads=0 / nr=0 / decimate=0 / interlaced=0 / bluray_compat=0 / constrained_intra=0 / bframes=8 / b_pyramid=2 / b_adapt=2 / b_bias=0 / direct=3 / weightb=1 / open_gop=0 / weightp=2 / keyint=250 / keyint_min=24 / scenecut=40 / intra_refresh=0 / rc_lookahead=250 / rc=crf / mbtree=0 / crf=16.8 / qcomp=0.60 / qpmin=0 / qpmax=69 / qpstep=4 / vbv_maxrate=62500 / vbv_bufsize=78125 / crf_max=0.0 / nal_hrd=none / filler=0 / ip_ratio=1.30 / pb_ratio=1.20 / aq=3:0.80
Language : English
Default : Yes
Forced : No
Color range : Limited
Color primaries : BT.709
Matrix coefficients : BT.709

Audio #1
ID : 2
Format : AC-3
Format/Info : Audio Coding 3
Commercial name : Dolby Digital
Codec ID : A_AC3
Duration : 1 h 28 min
Bit rate mode : Constant
Bit rate : 384 kb/s
Channel(s) : 6 channels
Channel layout : L R C LFE Ls Rs
Sampling rate : 48.0 kHz
Frame rate : 31.250 FPS (1536 SPF)
Compression mode : Lossy
Stream size : 242 MiB (4%)
Title : DUB - Мосфильм-Мастер
Language : Russian
Service kind : Complete Main
Default : Yes
Forced : No

Audio #2
ID : 3
Format : DTS
Format/Info : Digital Theater Systems
Codec ID : A_DTS
Duration : 1 h 28 min
Bit rate mode : Constant
Bit rate : 1 509 kb/s
Channel(s) : 6 channels
Channel layout : C L R Ls Rs LFE
Sampling rate : 48.0 kHz
Frame rate : 93.750 FPS (512 SPF)
Bit depth : 24 bits
Compression mode : Lossy
Stream size : 951 MiB (17%)
Title : Original
Language : English
Default : No
Forced : No

Text #1
ID : 4
Format : UTF-8
Codec ID : S_TEXT/UTF8
Codec ID/Info : UTF-8 Plain Text
Duration : 1 h 3 min
Bit rate : 0 b/s
Frame rate : 0.003 FPS
Count of elements : 13
Stream size : 369 Bytes (0%)
Title : Forced
Language : Russian
Default : No
Forced : No

Text #2
ID : 5
Format : UTF-8
Codec ID : S_TEXT/UTF8
Codec ID/Info : UTF-8 Plain Text
Duration : 1 h 22 min
Bit rate : 42 b/s
Frame rate : 0.140 FPS
Count of elements : 692
Stream size : 25.3 KiB (0%)
Title : Full
Language : Russian
Default : No
Forced : No

Text #3
ID : 6
Format : UTF-8
Codec ID : S_TEXT/UTF8
Codec ID/Info : UTF-8 Plain Text
Duration : 1 h 21 min
Bit rate : 25 b/s
Frame rate : 0.131 FPS
Count of elements : 641
Stream size : 15.4 KiB (0%)
Title : Full
Language : English
Default : No
Forced : No

Text #4
ID : 7
Format : UTF-8
Codec ID : S_TEXT/UTF8
Codec ID/Info : UTF-8 Plain Text
Duration : 1 h 22 min
Bit rate : 38 b/s
Frame rate : 0.206 FPS
Count of elements : 1016
Stream size : 23.3 KiB (0%)
Title : SDH
Language : English
Default : No
Forced : No

Menu
00:00:00.000 : en:Chapter 01
00:06:51.244 : en:Chapter 02
00:11:43.411 : en:Chapter 03
00:17:31.842 : en:Chapter 04
00:23:23.360 : en:Chapter 05
00:28:42.095 : en:Chapter 06
00:34:48.503 : en:Chapter 07
00:40:54.452 : en:Chapter 08
00:47:00.568 : en:Chapter 09
00:51:14.530 : en:Chapter 10
00:54:38.108 : en:Chapter 11
01:01:22.429 : en:Chapter 12
01:05:08.947 : en:Chapter 13
01:10:30.643 : en:Chapter 14
01:13:36.162 : en:Chapter 15
01:18:19.194 : en:Chapter 16

Другие фильмы
У данной публикации пока нет комментариев.
Будь первым, оставь своё мнение в комментариях!
Информация
Посетители, находящиеся в группе Гости, не могут оставлять комментарии к данной публикации.
Самый популярный релиз недели
Донаты
Мы в соц. сетях / RSS

Лучшие релизы месяца
Лучшие SD недели
Лучшие 720p недели
Лучшие 1080p недели
Лучшие 4K недели
Вы недавно смотрели
Реклама
Последние комментарии
...

-=DoMiNo=-

9 апреля 2024 17:43

...

supermehanik

9 апреля 2024 16:22

...

selezinka

5 апреля 2024 16:20

...

Kirk1991

30 марта 2024 15:04

...

Robot

22 марта 2024 09:33

Реклама