+6

Дурные деньги / Dumb Money (2023) BDRip 1080p от селезень | D, P, A

Информация о фильме
Название: Дурные деньги
Оригинальное название: Dumb Money
Год выхода: 2023
Жанр: биография, комедия, драма
Режиссер: Крэйг Гиллеспи
В ролях: Сет Роген, Пол Дано, Себастиан Стэн, Пит Дэвидсон, Шейлин Вудли, Ник Офферман, Винсент Д'Онофрио, Клэнси Браун, Дэйн ДеХаан, Америка Феррера

О фильме: Говорят, что миром правят деньги. А деньгами распоряжается Уолл-Стрит. И если на самом верху решили, что небольшая сеть магазинов видеоигр должна обанкротиться, то под это можно брать кредит в банке. Но однажды обычные люди сказали «нет» и дали бой мировым биржам. Геймеры, тик-токеры, домохозяйки и мелкие инвесторы принялись скупать акции и «сломали» Уолл-Стрит, попутно заработав дурные деньги.

Страна: США
Студия: Black Bear Pictures, Ryder Picture Company, Sony Pictures Entertainment (SPE)
Продолжительность: 01:45:02
Перевод(ы):
#1: Дублированный | Велес
#2: Профессиональный многоголосый | TVShows
#3: Авторский | М. Яроцкий


Качество: BDRip 1080p
Видео: MPEG-4 AVC, 1920x804, 14.2 Mbit/s, 23.976 fps
Аудио #01: 48 kHz, AC3, 5.1, 384 Kbps | Дублированный | Велес | RUS |Дурные деньги / Dumb Money (2023) BDRip 1080p от селезень | D, P, A
Аудио #02: 48 kHz, AC3, 5.1, 384 Kbps | Профессиональный многоголосый | TVShows | RUS |
Аудио #03: 48 kHz, AC3, 5.1, 640 Kbps | Авторский | М. Яроцкий | RUS |
Аудио #04: 48 kHz, AC3, 5.1, 640 Kbps | Оригинал | ENG |
Субтитры: Русские (Forced, full), английские

***В дубляже присутствуют вставки с многоголосого закадрового перевода от TVShows. Работа со звуком: селезень.

Дурные деньги / Dumb Money (2023) BDRip 1080p от селезень | D, P, A

Авторизуйтесь для получения доступа к скачиванию

Нет аккаунта? Регистрация открыта и займёт меньше минуты

Вход Регистрация

General
Unique ID : 131962218572732044188494339919445922417 (0x6346FFB32C11048A1599E3480DCE9271)
Complete name : H:\VideoH\Dumb.Money.2023.BDRip.1080p.seleZen.mkv
Format : Matroska
Format version : Version 4
File size : 11.9 GiB
Duration : 1 h 45 min
Overall bit rate : 16.3 Mb/s
Frame rate : 23.976 FPS
Movie name : Dumb Money 2023 from seleZen
Encoded date : 2024-02-17 14:15:03 UTC
Writing application : mkvmerge v80.0 ('Roundabout') 64-bit
Writing library : libebml v1.4.4 + libmatroska v1.7.1

Video
ID : 1
Format : AVC
Format/Info : Advanced Video Codec
Format profile : [email protected]
Format settings : CABAC / 5 Ref Frames
Format settings, CABAC : Yes
Format settings, Reference : 5 frames
Codec ID : V_MPEG4/ISO/AVC
Duration : 1 h 45 min
Bit rate : 14.2 Mb/s
Width : 1 920 pixels
Height : 804 pixels
Display aspect ratio : 2.39:1
Frame rate mode : Constant
Frame rate : 23.976 (24000/1001) FPS
Color space : YUV
Chroma subsampling : 4:2:0
Bit depth : 8 bits
Scan type : Progressive
Bits/(Pixel*Frame) : 0.384
Stream size : 10.4 GiB (87%)
Title : playHD
Writing library : x264 core 164 r3106 eaa68fa
Encoding settings : cabac=1 / ref=5 / deblock=1:-3:-3 / analyse=0x3:0x133 / me=umh / subme=10 / psy=1 / psy_rd=1.00:0.00 / mixed_ref=1 / me_range=32 / chroma_me=1 / trellis=2 / 8x8dct=1 / cqm=0 / deadzone=21,11 / fast_pskip=0 / chroma_qp_offset=-2 / threads=12 / lookahead_threads=2 / sliced_threads=0 / nr=0 / decimate=0 / interlaced=0 / bluray_compat=0 / constrained_intra=0 / bframes=8 / b_pyramid=2 / b_adapt=2 / b_bias=0 / direct=3 / weightb=1 / open_gop=0 / weightp=2 / keyint=250 / keyint_min=23 / scenecut=40 / intra_refresh=0 / rc=crf / mbtree=0 / crf=15.6 / qcomp=0.60 / qpmin=0 / qpmax=69 / qpstep=4 / ip_ratio=1.30 / pb_ratio=1.20 / aq=3:0.85
Language : English
Default : Yes
Forced : No

Audio #1
ID : 2
Format : AC-3
Format/Info : Audio Coding 3
Commercial name : Dolby Digital
Codec ID : A_AC3
Duration : 1 h 45 min
Bit rate mode : Constant
Bit rate : 384 kb/s
Channel(s) : 6 channels
Channel layout : L R C LFE Ls Rs
Sampling rate : 48.0 kHz
Frame rate : 31.250 FPS (1536 SPF)
Compression mode : Lossy
Stream size : 288 MiB (2%)
Title : Dub_Veles
Language : Russian
Service kind : Complete Main
Default : Yes
Forced : No

Audio #2
ID : 3
Format : AC-3
Format/Info : Audio Coding 3
Commercial name : Dolby Digital
Codec ID : A_AC3
Duration : 1 h 45 min
Bit rate mode : Constant
Bit rate : 384 kb/s
Channel(s) : 6 channels
Channel layout : L R C LFE Ls Rs
Sampling rate : 48.0 kHz
Frame rate : 31.250 FPS (1536 SPF)
Compression mode : Lossy
Stream size : 288 MiB (2%)
Title : MVO_TVShows
Language : Russian
Service kind : Complete Main
Default : Yes
Forced : No

Audio #3
ID : 4
Format : AC-3
Format/Info : Audio Coding 3
Commercial name : Dolby Digital
Codec ID : A_AC3
Duration : 1 h 45 min
Bit rate mode : Constant
Bit rate : 640 kb/s
Channel(s) : 6 channels
Channel layout : L R C LFE Ls Rs
Sampling rate : 48.0 kHz
Frame rate : 31.250 FPS (1536 SPF)
Compression mode : Lossy
Stream size : 481 MiB (4%)
Title : AVO_Yarotsky
Language : Russian
Service kind : Complete Main
Default : No
Forced : No

Audio #4
ID : 5
Format : AC-3
Format/Info : Audio Coding 3
Commercial name : Dolby Digital
Codec ID : A_AC3
Duration : 1 h 45 min
Bit rate mode : Constant
Bit rate : 640 kb/s
Channel(s) : 6 channels
Channel layout : L R C LFE Ls Rs
Sampling rate : 48.0 kHz
Frame rate : 31.250 FPS (1536 SPF)
Compression mode : Lossy
Stream size : 481 MiB (4%)
Title : Original
Language : English
Service kind : Complete Main
Default : No
Forced : No

Text #1
ID : 6
Format : UTF-8
Codec ID : S_TEXT/UTF8
Codec ID/Info : UTF-8 Plain Text
Duration : 1 h 37 min
Bit rate : 14 b/s
Frame rate : 0.030 FPS
Count of elements : 173
Stream size : 10.00 KiB (0%)
Title : Forced
Language : Russian
Default : No
Forced : Yes

Text #2
ID : 7
Format : UTF-8
Codec ID : S_TEXT/UTF8
Codec ID/Info : UTF-8 Plain Text
Duration : 1 h 35 min
Bit rate : 160 b/s
Frame rate : 0.274 FPS
Count of elements : 1564
Stream size : 112 KiB (0%)
Title : Full
Language : Russian
Default : No
Forced : No

Text #3
ID : 8
Format : UTF-8
Codec ID : S_TEXT/UTF8
Codec ID/Info : UTF-8 Plain Text
Duration : 1 min 10 s
Bit rate : 33 b/s
Frame rate : 0.184 FPS
Count of elements : 13
Stream size : 298 Bytes (0%)
Title : Forced
Language : English
Default : No
Forced : No

Text #4
ID : 9
Format : UTF-8
Codec ID : S_TEXT/UTF8
Codec ID/Info : UTF-8 Plain Text
Duration : 1 h 40 min
Bit rate : 97 b/s
Frame rate : 0.318 FPS
Count of elements : 1917
Stream size : 71.3 KiB (0%)
Title : Full
Language : English
Default : No
Forced : No

Text #5
ID : 10
Format : UTF-8
Codec ID : S_TEXT/UTF8
Codec ID/Info : UTF-8 Plain Text
Duration : 1 h 41 min
Bit rate : 101 b/s
Frame rate : 0.332 FPS
Count of elements : 2021
Stream size : 75.7 KiB (0%)
Title : SDH
Language : English
Default : No
Forced : No

Menu
00:00:00.000 : Chapter 01
00:03:53.442 : Chapter 02
00:08:23.712 : Chapter 03
00:13:54.542 : Chapter 04
00:19:02.141 : Chapter 05
00:23:39.251 : Chapter 06
00:28:28.165 : Chapter 07
00:36:45.495 : Chapter 08
00:44:59.614 : Chapter 09
00:52:49.792 : Chapter 10
01:00:15.737 : Chapter 11
01:08:17.010 : Chapter 12
01:12:48.531 : Chapter 13
01:20:52.056 : Chapter 14
01:27:06.054 : Chapter 15
01:34:12.730 : Chapter 16
01:38:18.935 : Chapter 17

Другие фильмы
У данной публикации пока нет комментариев.
Будь первым, оставь своё мнение в комментариях!
Информация
Посетители, находящиеся в группе Гости, не могут оставлять комментарии к данной публикации.
Самый популярный релиз недели
Донаты
Мы в соц. сетях / RSS

Лучшие релизы месяца
Лучшие SD недели
Лучшие 720p недели
Лучшие 1080p недели
Лучшие 4K недели
Вы недавно смотрели
Реклама
Последние комментарии
...

-=DoMiNo=-

9 апреля 2024 17:43

...

supermehanik

9 апреля 2024 16:22

...

selezinka

5 апреля 2024 16:20

...

Kirk1991

30 марта 2024 15:04

...

Robot

22 марта 2024 09:33

Реклама