+9

Аквамен и потерянное царство / Aquaman and the Lost Kingdom (2023) WEB-DL 720p от селезень | D, P

Информация о фильме
Название: Аквамен и потерянное царство
Оригинальное название: Aquaman and the Lost Kingdom
Год выпуска: 2023
Жанр: фантастика, фэнтези, боевик, приключения
Режиссер: Джеймс Ван
Актеры: Джейсон Момоа, Патрик Уилсон, Яхья Абдул-Матин II, Дольф Лундгрен, Темуэра Моррисон, Николь Кидман, Яни Жао, Эмбер Хёрд, Винсент Риган, Рэндалл Пак

Описание:
Атлантиде — королевству Аквамена — грозит опасность. Злодей Черная Манта, одержимый стремлением отомстить герою за своего отца, овладел разрушительной мощью Черного трезубца и теперь не остановится ни перед чем. Ради спасения королевства и близких людей Аквамену придется объединить силы со своим сводным братом, Ормом — свергнутым королем Атлантиды, заключенным в тюрьму, — и забыть обо всех разногласиях, которые были между ними. «Аквамен и потерянное царство» — сиквел фильма «Аквамен» 2018-го года с Джейсоном Момоа в главной роли.

Производство: США, Великобритания, Канада, Австралия, Исландия / Warner Bros., DC Entertainment
Продолжительность: 02:04:07
Перевод: Дублированный, профессиональный многоголосый
Субтитры: Русcкие (Forced, Full), английские (Full, SDH)

Файл
Формат: Matroska
Качество: WEB-DL 720p
Видео: 1280x720 at 23.976 fps, [email protected], ~4000 kbps
Аудио 1: AC3, 6 ch, 48.0 kHz, 384 Kbps - Русский дублированный (SC Produb)
Аудио 2: AC3, 2 ch, 48.0 kHz, 192 Kbps - Русский дублированный (Любительский)
Аудио 3: AC-3, 6 ch, 48.0 kHz, 384 Kbps - Русский MVO (Jaskier)
Аудио 4: AC-3, 6 ch, 48.0 kHz, 448 Kbps - Русский MVO (TVShows)
Аудио 5: E-AC3 Atmos, 6 ch, 48.0 kHz, 768 kbps - Английский
Формат субтитров: softsub (SRT)

* в закадре Jaskier героя Джейсона Мамоа озвучивает Иван Жарков ("Тор")
* О дублированный (Любительский) -Роли озвучивали: Денис Беспалый, Александр Гаврилин, Даниил Эльдаров, Александр Носков, Ольга Зубкова и др.
Дубляж был взят с пиратского сайта, где были 3 рекламные вставки (5:22, 1:14:55 и 1:20:11), подменяющие диалоги персонажей. Эти три рекламных диалога были заменены на официальный дубляж SC Produb. Рекламы нет!

Авторизуйтесь для получения доступа к скачиванию

Нет аккаунта? Регистрация открыта и займёт меньше минуты

Вход Регистрация

General
Unique ID: 287408731404042597557173195634970690205 (0xD838E880618C8EBE0E72D9B5D4C7829D)
Complete name: R: Aquaman.and.the.Lost.Kingdom.2023.WEB-DL.720p.x264.seleZen.mkv
Format: Matroska
Format version: Version 4
File size: 5.32 GiB
Duration: 2 h 4 min
Overall bit rate: 6 138 kb/s
Frame rate: 23.976 FPS
Movie name: Aquaman.and.the.Lost.Kingdom.2023.WEB-DL.720p.x264.seleZen
Encoded date: 12.02.2024 12:32:11 UTC
Writing application: mkvmerge v82.0 ('I’m The President') 64-bit
Writing library: libebml v1.4.5 + libmatroska v1.7.1
Cover: Yes
Attachments: cover.jpg / small_cover.jpg

Video
ID: 1
Format: AVC
Format/Info: Advanced Video Codec
Format profile: High@L4
Format settings: CABAC / 8 Ref Frames
Format settings, CABAC: Yes
Format settings, Reference: 8 frames
Codec ID: V_MPEG4/ISO/AVC
Duration: 2 h 4 min
Bit rate: 4 000 kb/s
Width: 1 280 pixels
Height: 720 pixels
Display aspect ratio: 16:9
Frame rate mode: Constant
Frame rate: 23.976 (24000/1001) FPS
Color space: YUV
Chroma subsampling: 4:2:0
Bit depth: 8 bits
Scan type: Progressive
Bits/(Pixel*Frame): 0.181
Stream size: 3.43 GiB (64%)
Title: -=DoMiNo=-
Writing library: x264 core 164 r3094 bfc87b7
Encoding settings: cabac=1 / ref=8 / deblock=1:-1:-1 / analyse=0×3:0×133 / me=umh / subme=9 / psy=1 / psy_rd=1.00:0.15 / mixed_ref=1 / me_range=16 / chroma_me=1 / trellis=2 / 8×8dct=1 / cqm=0 / deadzone=21,11 / fast_pskip=1 / chroma_qp_offset=-3 / threads=8 / lookahead_threads=1 / sliced_threads=0 / nr=0 / decimate=1 / interlaced=0 / bluray_compat=0 / stitchable=1 / constrained_intra=0 / bframes=3 / b_pyramid=2 / b_adapt=2 / b_bias=0 / direct=3 / weightb=1 / open_gop=0 / weightp=2 / keyint=48 / keyint_min=4 / scenecut=0 / intra_refresh=0 / rc_lookahead=48 / rc=abr / mbtree=1 / bitrate=4000 / ratetol=1.0 / qcomp=0.60 / qpmin=0 / qpmax=69 / qpstep=4 / vbv_maxrate=4400 / vbv_bufsize=8000 / nal_hrd=none / filler=0 / ip_ratio=1.40 / aq=1:1.00
Language: English
Default: Yes
Forced: No
Color range: Limited
Color primaries: BT.709
Transfer characteristics: BT.709
Matrix coefficients: BT.709

Audio #1
ID: 2
Format: AC-3
Format/Info: Audio Coding 3
Commercial name: Dolby Digital
Codec ID: A_AC3
Duration: 2 h 4 min
Bit rate mode: Constant
Bit rate: 384 kb/s
Channel (s): 6 channels
Channel layout: L R C LFE Ls Rs
Sampling rate: 48.0 kHz
Frame rate: 31.250 FPS (1536 SPF)
Compression mode: Lossy
Stream size: 341 MiB (6%)
Title: DUB (SC Produb)
Language: Russian
Service kind: Complete Main
Default: Yes
Forced: No

Audio #2
ID: 3
Format: AC-3
Format/Info: Audio Coding 3
Commercial name: Dolby Digital
Codec ID: A_AC3
Duration: 2 h 4 min
Bit rate mode: Constant
Bit rate: 192 kb/s
Channel (s): 2 channels
Channel layout: L R
Sampling rate: 48.0 kHz
Frame rate: 31.250 FPS (1536 SPF)
Compression mode: Lossy
Delay relative to video: 1 s 0 ms
Stream size: 170 MiB (3%)
Title: DUB (неофициальный)
Language: Russian
Service kind: Complete Main
Default: No
Forced: No

Audio #3
ID: 4
Format: AC-3
Format/Info: Audio Coding 3
Commercial name: Dolby Digital
Codec ID: A_AC3
Duration: 2 h 4 min
Bit rate mode: Constant
Bit rate: 384 kb/s
Channel (s): 6 channels
Channel layout: L R C LFE Ls Rs
Sampling rate: 48.0 kHz
Frame rate: 31.250 FPS (1536 SPF)
Compression mode: Lossy
Stream size: 341 MiB (6%)
Title: MVO (Jaskier)
Language: Russian
Service kind: Complete Main
Default: No
Forced: No

Audio #4
ID: 5
Format: AC-3
Format/Info: Audio Coding 3
Commercial name: Dolby Digital
Codec ID: A_AC3
Duration: 2 h 4 min
Bit rate mode: Constant
Bit rate: 448 kb/s
Channel (s): 6 channels
Channel layout: L R C LFE Ls Rs
Sampling rate: 48.0 kHz
Frame rate: 31.250 FPS (1536 SPF)
Compression mode: Lossy
Stream size: 398 MiB (7%)
Title: MVO (TVShows)
Language: Russian
Service kind: Complete Main
Default: No
Forced: No

Audio #5
ID: 6
Format: E-AC-3 JOC
Format/Info: Enhanced AC-3 with Joint Object Coding
Commercial name: Dolby Digital Plus with Dolby Atmos
Codec ID: A_EAC3
Duration: 2 h 4 min
Bit rate mode: Constant
Bit rate: 768 kb/s
Channel (s): 6 channels
Channel layout: L R C LFE Ls Rs
Sampling rate: 48.0 kHz
Frame rate: 31.250 FPS (1536 SPF)
Compression mode: Lossy
Stream size: 682 MiB (13%)
Title: Original
Language: English
Service kind: Complete Main
Default: No
Forced: No
Complexity index: 16
Number of dynamic objects: 15
Bed channel count: 1 channel
Bed channel configuration: LFE

Text #1
ID: 7
Format: UTF-8
Codec ID: S_TEXT/UTF8
Codec ID/Info: UTF-8 Plain Text
Duration: 1 h 56 min
Bit rate: 1 b/s
Frame rate: 0.003 FPS
Count of elements: 20
Stream size: 906 Bytes (0%)
Title: Forced
Language: Russian
Default: No
Forced: No

Text #2
ID: 8
Format: UTF-8
Codec ID: S_TEXT/UTF8
Codec ID/Info: UTF-8 Plain Text
Duration: 2 h 3 min
Bit rate: 59 b/s
Frame rate: 0.139 FPS
Count of elements: 1025
Stream size: 53.2 KiB (0%)
Title: Full
Language: Russian
Default: No
Forced: No

Text #3
ID: 9
Format: UTF-8
Codec ID: S_TEXT/UTF8
Codec ID/Info: UTF-8 Plain Text
Duration: 1 h 57 min
Bit rate: 47 b/s
Frame rate: 0.169 FPS
Count of elements: 1192
Stream size: 41.0 KiB (0%)
Title: Full
Language: English
Default: No
Forced: No

Text #4
ID: 10
Format: UTF-8
Codec ID: S_TEXT/UTF8
Codec ID/Info: UTF-8 Plain Text
Duration: 1 h 57 min
Bit rate: 58 b/s
Frame rate: 0.235 FPS
Count of elements: 1660
Stream size: 50.8 KiB (0%)
Title: SDH
Language: English
Default: No
Forced: No

Menu
00:00:00.000: en: Chapter 01
00:07:42.212: en: Chapter 02
00:17:39.934: en: Chapter 03
00:22:21.216: en: Chapter 04
00:26:32.050: en: Chapter 05
00:37:26.037: en: Chapter 06
00:43:56.094: en: Chapter 07
00:51:45.605: en: Chapter 08
00:59:12.010: en: Chapter 09
01:05:55.622: en: Chapter 10
01:14:39.729: en: Chapter 11
01:23:37.267: en: Chapter 12
01:28:33.938: en: Chapter 13
01:36:11.062: en: Chapter 14
01:47:28.239: en: Chapter 15
01:52:56.401: en: Chapter 16

Другие фильмы
Комментарии:

...
Hargs 12 февраля 2024 21:59
0

А говорил не будет работать с пиратами, но и клоун этот жарков..

Информация
Посетители, находящиеся в группе Гости, не могут оставлять комментарии к данной публикации.
Самый популярный релиз недели
Донаты
Мы в соц. сетях / RSS

Лучшие релизы месяца
Лучшие SD недели
Лучшие 720p недели
Лучшие 1080p недели
Лучшие 4K недели
Вы недавно смотрели
Реклама
Последние комментарии
...

korelov

23 февраля 2024 14:35

...

Desol

21 февраля 2024 00:28

...

diabloq

20 февраля 2024 14:17

...

slightlymad

17 февраля 2024 21:01

...

takezi

15 февраля 2024 22:10

Реклама