+8

Пациент Зеро / Yummy (2019) HDRip-AVC от DoMiNo & селезень | D

Информация о фильме
Название: Пациент Зеро
Оригинальное название: Yummy
Год выхода: 2019
Жанр: Ужасы, боевик, триллер, комедия
Режиссер: Ларс Дамуасо
В ролях: Майке Нёвилль, Барт Холландерс, Бенжамин Рамон, Клара Клейманс, Анник Кристиэнс, Эрик Годон, Джошуа Рубин, Таеке Николай, Том Ауденарт, Нуреддин Фарихи

О фильме:
В клинику пластической хирургии где-то в Восточной Европе приезжает бельгийка Элисон в сопровождении мамы, большой любительницы улучшать собственную внешность, и недотёпы-бойфренда Микаэля. В клинике царит пренебрежение врачебной этикой и гигиеной, а также втайне проводятся эксперименты со стволовыми клетками. К недовольству близких и удивлению персонала Элисон хочет уменьшить размер груди с G на B, и пока её готовят к операции, Микаэль находит и случайно высвобождает привязанную к каталке странную женщину с явными намерениями полакомиться человеческой плотью.

Страна: Бельгия
Студия: 10.80 Films, A Team Productions, Everstory Productions
Продолжительность: 01:29:10
Перевод: Дублированный | Кириллица | iTunes
Субтитры: Английские

Файл
Формат: Matroska
Качество: HDRip-AVC
Видео: 1024×428 at 23.976 fps, [email protected], ~1928 kbps
Аудио: AC3, 6 ch, ~384 kbps — | Русский | Пациент Зеро / Yummy (2019) HDRip-AVC от DoMiNo & селезень | D
Формат субтитров: softsub (SRT)

Авторизуйтесь для получения доступа к скачиванию

Нет аккаунта? Регистрация открыта и займёт меньше минуты

Вход Регистрация

x264 [info]: frame I:1052 Avg QP:14.85 size: 52714
x264 [info]: frame P:29317 Avg QP:16.60 size: 21512
x264 [info]: frame B:97905 Avg QP:18.99 size: 6160

General
Unique ID : 78266825383216989689913138978516551607 (0x3AE1A46B877E48D66ACEB8CDE14EC7B7)
Complete name : I:Yummy.2019.DUB.x264.seleZen.mkv
Format : Matroska
Format version : Version 4
File size : 1.44 GiB
Duration : 1 h 29 min
Overall bit rate : 2 314 kb/s
Frame rate : 23.976 FPS
Movie name : Yummy.2019.DUB.x264.seleZen
Encoded date : 2024-02-12 08:43:47 UTC
Writing application : mkvmerge v82.0 ('I'm The President') 64-bit
Writing library : libebml v1.4.5 + libmatroska v1.7.1
Cover : Yes
Attachments : cover.jpg / small_cover.jpg

Video
ID : 1
Format : AVC
Format/Info : Advanced Video Codec
Format profile : [email protected]
Format settings : CABAC / 14 Ref Frames
Format settings, CABAC : Yes
Format settings, Reference : 14 frames
Codec ID : V_MPEG4/ISO/AVC
Duration : 1 h 29 min
Bit rate : 1 928 kb/s
Width : 1 024 pixels
Height : 428 pixels
Display aspect ratio : 2.40:1
Frame rate mode : Constant
Frame rate : 23.976 (24000/1001) FPS
Color space : YUV
Chroma subsampling : 4:2:0
Bit depth : 8 bits
Scan type : Progressive
Bits/(Pixel*Frame) : 0.183
Stream size : 1.20 GiB (83%)
Title : -=DoMiNo=-
Writing library : x264 core 164 r3173 -DoMiNo
Encoding settings : cabac=1 / ref=14 / deblock=1:-2:-2 / analyse=0x3:0x133 / me=umh / subme=10 / psy=1 / psy_rd=1.03:0.05 / mixed_ref=1 / me_range=32 / chroma_me=1 / trellis=2 / 8x8dct=1 / cqm=0 / deadzone=21,11 / fast_pskip=0 / chroma_qp_offset=-3 / threads=16 / lookahead_threads=3 / sliced_threads=0 / nr=0 / decimate=0 / interlaced=0 / bluray_compat=0 / constrained_intra=0 / bframes=10 / b_pyramid=2 / b_adapt=2 / b_bias=0 / direct=1 / weightb=1 / open_gop=0 / weightp=2 / keyint=250 / keyint_min=23 / scenecut=40 / intra_refresh=0 / rc_lookahead=60 / rc=crf / mbtree=0 / crf=18.5 / qcomp=0.60 / qpmin=0 / qpmax=69 / qpstep=4 / vbv_maxrate=50000 / vbv_bufsize=62500 / crf_max=0.0 / nal_hrd=none / filler=0 / ip_ratio=1.40 / pb_ratio=1.30 / aq=3:0.90
Language : English
Default : Yes
Forced : No

Audio
ID : 2
Format : AC-3
Format/Info : Audio Coding 3
Commercial name : Dolby Digital
Codec ID : A_AC3
Duration : 1 h 29 min
Bit rate mode : Constant
Bit rate : 384 kb/s
Channel(s) : 6 channels
Channel layout : L R C LFE Ls Rs
Sampling rate : 48.0 kHz
Frame rate : 31.250 FPS (1536 SPF)
Compression mode : Lossy
Stream size : 245 MiB (17%)
Title : DUB -Кириллица
Language : Russian
Service kind : Complete Main
Default : Yes
Forced : No

Text #1
ID : 3
Format : UTF-8
Codec ID : S_TEXT/UTF8
Codec ID/Info : UTF-8 Plain Text
Duration : 1 h 18 min
Bit rate : 5 b/s
Frame rate : 0.021 FPS
Count of elements : 99
Stream size : 2.94 KiB (0%)
Title : Forced
Language : English
Default : No
Forced : No

Text #2
ID : 4
Format : UTF-8
Codec ID : S_TEXT/UTF8
Codec ID/Info : UTF-8 Plain Text
Duration : 1 h 24 min
Bit rate : 29 b/s
Frame rate : 0.164 FPS
Count of elements : 833
Stream size : 18.5 KiB (0%)
Title : Full
Language : English
Default : No
Forced : No

Text #3
ID : 5
Format : UTF-8
Codec ID : S_TEXT/UTF8
Codec ID/Info : UTF-8 Plain Text
Duration : 1 h 27 min
Bit rate : 35 b/s
Frame rate : 0.237 FPS
Count of elements : 1248
Stream size : 23.0 KiB (0%)
Title : SDH
Language : English
Default : No
Forced : No

Menu
00:00:00.000 : Morgue Madness
00:02:57.469 : Roadkill
00:07:27.947 : Klinika Krawczyk
00:17:16.994 : Are You Okay?
00:24:30.219 : Stairway to Hell
00:32:23.024 : Wake Up
00:41:31.781 : God is Punishing Us
00:48:55.724 : Mama Mia!
00:58:47.983 : The Only Way Out
01:05:51.990 : Risk of Contamination
01:14:15.076 : Making a Break
01:22:45.544 : Pookie?

Другие фильмы
У данной публикации пока нет комментариев.
Будь первым, оставь своё мнение в комментариях!
Информация
Посетители, находящиеся в группе Гости, не могут оставлять комментарии к данной публикации.
Самый популярный релиз недели
Донаты
Мы в соц. сетях / RSS

Лучшие релизы месяца
Лучшие SD недели
Лучшие 720p недели
Лучшие 1080p недели
Лучшие 4K недели
Вы недавно смотрели
Реклама
Последние комментарии
...

korelov

23 февраля 2024 14:35

...

Desol

21 февраля 2024 00:28

...

diabloq

20 февраля 2024 14:17

...

slightlymad

17 февраля 2024 21:01

...

takezi

15 февраля 2024 22:10

Реклама