+6

Гнев материнский / The Good Mother (2023) BDRemux 1080p от селезень | D

Информация о фильме
Название: Гнев материнский
Оригинальное название: The Good Mother
Год выхода: 2023
Жанр: триллер, драма, криминал, детектив
Режиссер: Майлз Джорис-Пейрафит
В ролях: Хилари Суэнк, Оливия Кук, Джек Рейнор, Дилон, Норм Льюис, Мэдисон Харрисон, Хоппер Пенн, Карен Элдридж, Jason Giampietro, Маджестик Тиллман

О фильме: Отчаянная мать и профессиональная журналистка Марисса берётся самостоятельно расследовать дело о жестоком убийстве собственного сына. Пока второй ее сын - полицейский - пытается скрыть детали следствия, девушка погибшего решает вступить в опасное расследование и помочь матери. Вместе они должны докопаться до правды, какой бы страшной она ни была.

Страна: США
Студия: Artemis, Priority Pictures, SSS Entertainment, SSS Film Capital, Votiv Films
Продолжительность: 01:30:23
Перевод: Дублированный | Велес

Качество: BDRemux 1080p
Видео: MPEG-4 AVC, 1920x1080, 27.0 Mbit/s, 23.976 fps
Аудио #01: 48 kHz, AC3, 5.1, 384 Kbps | Дублированный | Велес | RUS |Гнев материнский / The Good Mother (2023) BDRemux 1080p от селезень | D
Аудио #02: 48 kHz, E-AC3, 5.1, 384 Kbps | Дублированный | Велес | RUS |
Аудио #03: 48 kHz, DTS-HD MA, 5.1, 3794 Kbps | Оригинал | ENG |
Субтитры: Английские

Гнев материнский / The Good Mother (2023) BDRemux 1080p от селезень | D

Авторизуйтесь для получения доступа к скачиванию

Нет аккаунта? Регистрация открыта и займёт меньше минуты

Вход Регистрация

General
Unique ID : 334544887370286753289050612823252658100 (0xFBAF006B01FD72CA94ABD030F191E7B4)
Complete name : H:\VideoH\The.Good.Mother.2023.BDREMUX.1080p.seleZen.mkv
Format : Matroska
Format version : Version 4
File size : 19.9 GiB
Duration : 1 h 30 min
Overall bit rate mode : Variable
Overall bit rate : 31.5 Mb/s
Frame rate : 23.976 FPS
Movie name : The Good Mother 2023 from seleZen
Encoded date : 2024-02-11 13:07:03 UTC
Writing application : mkvmerge v80.0 ('Roundabout') 64-bit
Writing library : libebml v1.4.4 + libmatroska v1.7.1

Video
ID : 1
Format : AVC
Format/Info : Advanced Video Codec
Format profile : [email protected]
Format settings : CABAC / 4 Ref Frames
Format settings, CABAC : Yes
Format settings, Reference : 4 frames
Format settings, Slice coun : 4 slices per frame
Codec ID : V_MPEG4/ISO/AVC
Duration : 1 h 30 min
Bit rate mode : Variable
Bit rate : 27.0 Mb/s
Maximum bit rate : 38.0 Mb/s
Width : 1 920 pixels
Height : 1 080 pixels
Display aspect ratio : 16:9
Frame rate mode : Constant
Frame rate : 23.976 (24000/1001) FPS
Color space : YUV
Chroma subsampling : 4:2:0
Bit depth : 8 bits
Scan type : Progressive
Bits/(Pixel*Frame) : 0.543
Time code of first frame : 01:00:00:00
Stream size : 17.0 GiB (86%)
Language : English
Default : Yes
Forced : No

Audio #1
ID : 2
Format : AC-3
Format/Info : Audio Coding 3
Commercial name : Dolby Digital
Codec ID : A_AC3
Duration : 1 h 30 min
Bit rate mode : Constant
Bit rate : 384 kb/s
Channel(s) : 6 channels
Channel layout : L R C LFE Ls Rs
Sampling rate : 48.0 kHz
Frame rate : 31.250 FPS (1536 SPF)
Compression mode : Lossy
Stream size : 248 MiB (1%)
Title : Dub
Language : Russian
Service kind : Complete Main
Default : Yes
Forced : No

Audio #2
ID : 3
Format : E-AC-3
Format/Info : Enhanced AC-3
Commercial name : Dolby Digital Plus
Codec ID : A_EAC3
Duration : 1 h 30 min
Bit rate mode : Constant
Bit rate : 384 kb/s
Channel(s) : 6 channels
Channel layout : L R C LFE Ls Rs
Sampling rate : 48.0 kHz
Frame rate : 31.250 FPS (1536 SPF)
Compression mode : Lossy
Stream size : 248 MiB (1%)
Title : Dub
Language : Russian
Service kind : Complete Main
Default : No
Forced : No

Audio #3
ID : 4
Format : DTS XLL
Format/Info : Digital Theater Systems
Commercial name : DTS-HD Master Audio
Codec ID : A_DTS
Duration : 1 h 30 min
Bit rate mode : Variable
Bit rate : 3 794 kb/s
Channel(s) : 6 channels
Channel layout : C L R Ls Rs LFE
Sampling rate : 48.0 kHz
Frame rate : 93.750 FPS (512 SPF)
Bit depth : 24 bits
Compression mode : Lossless
Stream size : 2.40 GiB (12%)
Title : Original
Language : English
Default : No
Forced : No

Text #1
ID : 5
Format : UTF-8
Codec ID : S_TEXT/UTF8
Codec ID/Info : UTF-8 Plain Text
Duration : 1 h 27 min
Bit rate : 35 b/s
Frame rate : 0.151 FPS
Count of elements : 797
Stream size : 23.0 KiB (0%)
Title : Full
Language : English
Default : No
Forced : No

Text #2
ID : 6
Format : UTF-8
Codec ID : S_TEXT/UTF8
Codec ID/Info : UTF-8 Plain Text
Duration : 1 h 29 min
Bit rate : 41 b/s
Frame rate : 0.194 FPS
Count of elements : 1041
Stream size : 26.9 KiB (0%)
Title : SDH
Language : English
Default : No
Forced : No

Menu
00:00:00.000 : en:Chapter 01
00:08:49.612 : en:Chapter 02
00:19:04.560 : en:Chapter 03
00:30:04.720 : en:Chapter 04
00:40:40.396 : en:Chapter 05
00:50:26.190 : en:Chapter 06
01:03:46.614 : en:Chapter 07
01:14:21.290 : en:Chapter 08
01:30:22.334 : en:Chapter 09

Другие фильмы
У данной публикации пока нет комментариев.
Будь первым, оставь своё мнение в комментариях!
Информация
Посетители, находящиеся в группе Гости, не могут оставлять комментарии к данной публикации.
Самый популярный релиз недели
Донаты
Мы в соц. сетях / RSS

Лучшие релизы месяца
Лучшие SD недели
Лучшие 720p недели
Лучшие 1080p недели
Лучшие 4K недели
Вы недавно смотрели
Реклама
Последние комментарии
...

korelov

23 февраля 2024 14:35

...

Desol

21 февраля 2024 00:28

...

diabloq

20 февраля 2024 14:17

...

slightlymad

17 февраля 2024 21:01

...

takezi

15 февраля 2024 22:10

Реклама