+4

Гнев материнский / The Good Mother (2023) BDRip 1080p от селезень | D

Информация о фильме
Название: Гнев материнский
Оригинальное название: The Good Mother
Год выхода: 2023
Жанр: триллер, драма, криминал, детектив
Режиссер: Майлз Джорис-Пейрафит
В ролях: Хилари Суэнк, Оливия Кук, Джек Рейнор, Дилон, Норм Льюис, Мэдисон Харрисон, Хоппер Пенн, Карен Элдридж, Jason Giampietro, Маджестик Тиллман

О фильме: Отчаянная мать и профессиональная журналистка Марисса берётся самостоятельно расследовать дело о жестоком убийстве собственного сына. Пока второй ее сын - полицейский - пытается скрыть детали следствия, девушка погибшего решает вступить в опасное расследование и помочь матери. Вместе они должны докопаться до правды, какой бы страшной она ни была.

Страна: США
Студия: Artemis, Priority Pictures, SSS Entertainment, SSS Film Capital, Votiv Films
Продолжительность: 01:30:23
Перевод: Дублированный | Велес

Качество: BDRip 1080p
Видео: MPEG-4 AVC, 1920x802, 10.0 Mbit/s, 23.976 fps
Аудио #01: 48 kHz, AC3, 5.1, 384 Kbps | Дублированный | Велес | RUS |Гнев материнский / The Good Mother (2023) BDRip 1080p от селезень | D
Аудио #02: 48 kHz, E-AC3, 5.1, 384 Kbps | Дублированный | Велес | RUS |
Аудио #03: 48 kHz, AC3, 5.1, 640 Kbps | Оригинал | ENG |
Субтитры: Английские

Гнев материнский / The Good Mother (2023) BDRip 1080p от селезень | D

Авторизуйтесь для получения доступа к скачиванию

Нет аккаунта? Регистрация открыта и займёт меньше минуты

Вход Регистрация

General
Unique ID : 225331794422224862955191233253587241542 (0xA98553352AF8DDEC29D035F2661B4A46)
Complete name : H:\VideoH\The.Good.Mother.2023.BDRip.1080p.seleZen.mkv
Format : Matroska
Format version : Version 4
File size : 7.20 GiB
Duration : 1 h 30 min
Overall bit rate : 11.4 Mb/s
Frame rate : 23.976 FPS
Movie name : The Good Mother 2023 from seleZen
Encoded date : 2024-02-11 14:42:35 UTC
Writing application : mkvmerge v80.0 ('Roundabout') 64-bit
Writing library : libebml v1.4.4 + libmatroska v1.7.1

Video
ID : 1
Format : AVC
Format/Info : Advanced Video Codec
Format profile : [email protected]
Format settings : CABAC / 5 Ref Frames
Format settings, CABAC : Yes
Format settings, Reference : 5 frames
Codec ID : V_MPEG4/ISO/AVC
Duration : 1 h 30 min
Bit rate : 10 000 kb/s
Width : 1 920 pixels
Height : 802 pixels
Display aspect ratio : 2.39:1
Frame rate mode : Constant
Frame rate : 23.976 (24000/1001) FPS
Color space : YUV
Chroma subsampling : 4:2:0
Bit depth : 8 bits
Scan type : Progressive
Bits/(Pixel*Frame) : 0.271
Stream size : 6.31 GiB (88%)
Writing library : x264 core 164 r3164 seleZen
Encoding settings : cabac=1 / ref=5 / deblock=1:-2:-2 / analyse=0x3:0x133 / me=umh / subme=11 / psy=1 / psy_rd=1.01:0.05 / mixed_ref=1 / me_range=48 / chroma_me=1 / trellis=2 / 8x8dct=1 / cqm=0 / deadzone=21,11 / fast_pskip=0 / chroma_qp_offset=-3 / threads=25 / lookahead_threads=6 / sliced_threads=0 / nr=0 / decimate=0 / interlaced=0 / bluray_compat=0 / constrained_intra=0 / bframes=10 / b_pyramid=2 / b_adapt=2 / b_bias=0 / direct=3 / weightb=1 / open_gop=0 / weightp=2 / keyint=240 / keyint_min=23 / scenecut=40 / intra_refresh=0 / rc_lookahead=60 / rc=2pass / mbtree=0 / bitrate=10000 / ratetol=1.0 / qcomp=0.60 / qpmin=0 / qpmax=51 / qpstep=4 / cplxblur=20.0 / qblur=0.5 / vbv_maxrate=50000 / vbv_bufsize=62500 / nal_hrd=none / filler=0 / ip_ratio=1.40 / pb_ratio=1.30 / aq=3:0.80
Language : English
Default : Yes
Forced : No

Audio #1
ID : 2
Format : AC-3
Format/Info : Audio Coding 3
Commercial name : Dolby Digital
Codec ID : A_AC3
Duration : 1 h 30 min
Bit rate mode : Constant
Bit rate : 384 kb/s
Channel(s) : 6 channels
Channel layout : L R C LFE Ls Rs
Sampling rate : 48.0 kHz
Frame rate : 31.250 FPS (1536 SPF)
Compression mode : Lossy
Stream size : 248 MiB (3%)
Title : Dub
Language : Russian
Service kind : Complete Main
Default : Yes
Forced : No

Audio #2
ID : 3
Format : E-AC-3
Format/Info : Enhanced AC-3
Commercial name : Dolby Digital Plus
Codec ID : A_EAC3
Duration : 1 h 30 min
Bit rate mode : Constant
Bit rate : 384 kb/s
Channel(s) : 6 channels
Channel layout : L R C LFE Ls Rs
Sampling rate : 48.0 kHz
Frame rate : 31.250 FPS (1536 SPF)
Compression mode : Lossy
Stream size : 248 MiB (3%)
Title : Dub
Language : Russian
Service kind : Complete Main
Default : No
Forced : No

Audio #3
ID : 4
Format : AC-3
Format/Info : Audio Coding 3
Commercial name : Dolby Digital
Codec ID : A_AC3
Duration : 1 h 30 min
Bit rate mode : Constant
Bit rate : 640 kb/s
Channel(s) : 6 channels
Channel layout : L R C LFE Ls Rs
Sampling rate : 48.0 kHz
Frame rate : 31.250 FPS (1536 SPF)
Compression mode : Lossy
Stream size : 414 MiB (6%)
Title : Original
Language : English
Service kind : Complete Main
Default : No
Forced : No

Text #1
ID : 5
Format : UTF-8
Codec ID : S_TEXT/UTF8
Codec ID/Info : UTF-8 Plain Text
Duration : 1 h 27 min
Bit rate : 35 b/s
Frame rate : 0.151 FPS
Count of elements : 797
Stream size : 23.0 KiB (0%)
Title : Full
Language : English
Default : No
Forced : No

Text #2
ID : 6
Format : UTF-8
Codec ID : S_TEXT/UTF8
Codec ID/Info : UTF-8 Plain Text
Duration : 1 h 29 min
Bit rate : 41 b/s
Frame rate : 0.194 FPS
Count of elements : 1041
Stream size : 26.9 KiB (0%)
Title : SDH
Language : English
Default : No
Forced : No

Menu
00:00:00.000 : en:Chapter 01
00:08:49.612 : en:Chapter 02
00:19:04.560 : en:Chapter 03
00:30:04.720 : en:Chapter 04
00:40:40.396 : en:Chapter 05
00:50:26.190 : en:Chapter 06
01:03:46.614 : en:Chapter 07
01:14:21.290 : en:Chapter 08
01:30:22.334 : en:Chapter 09

Другие фильмы
У данной публикации пока нет комментариев.
Будь первым, оставь своё мнение в комментариях!
Информация
Посетители, находящиеся в группе Гости, не могут оставлять комментарии к данной публикации.
Самый популярный релиз недели
Донаты
Мы в соц. сетях / RSS

Лучшие релизы месяца
Лучшие SD недели
Лучшие 720p недели
Лучшие 1080p недели
Лучшие 4K недели
Вы недавно смотрели
Реклама
Последние комментарии
...

korelov

23 февраля 2024 14:35

...

Desol

21 февраля 2024 00:28

...

diabloq

20 февраля 2024 14:17

...

slightlymad

17 февраля 2024 21:01

...

takezi

15 февраля 2024 22:10

Реклама