+18

Хало / Halo [02x01-04 из 8] (2024) WEB-DLRip-AVC от DoMiNo & селезень | LostFilm

Информация о фильме
Название: Хало
Оригинальное название: Halo
Год выхода: 2024
Жанр: фантастика, боевик
Режиссер: Отто Батхёрст, Джонатан Либесман, Роэль Рейн
В ролях: Пабло Шрайбер, Наташа МакЭлхоун, Yerin Ha, Боким Вудбайн, Джен Тейлор, Шабана Азми, Оливия Грант, Чарли Мерфи, Кейт Кеннеди, Бентли Калу

О фильме:
«Halo» — это экранизация одноименной игровой франшизы в жанре боевой фантастики, разработанная сценаристами Стивеном Кэйном («Последний корабль») и Кайлом Килленом («Пробуждение») для сервиса Paramount+. Проект стартовал еще в 2013 году, когда инициатором и одним из продюсеров адаптации выступил Стивен Спилберг. Как и в игре, сериал повествует о войне землян с Ковенантом, теократическим союзом инопланетных цивилизаций. Таймлайн шоу несколько отличается от хронологии игр, однако сюжет также сконцентрирован на герое по имени Мастер Чиф. Главные роли в сериале исполнили Пабло Шрайбер («Американские боги»), Наташа МакЭлхоун («Калифорникейшн»), Джен Тейлор, Букем Вудбайн («Фарго»).

На протяжении нескольких лет силы Космического Командования Объединенных Наций ведут войну с Империей Ковенанта, постепенно сдавая позиции. Однако земные ученые разработали проект «Спартанец-II» — программу создания суперсолдат посредством биологических и механических улучшений, на которую Командование возлагает большие надежды. Группа спартанцев во главе с Мастером Чифом (Пабло Шрайбер) прибывает на одну из планет, чтобы зачистить местную колонию от инопланетян Ковенанта, однако во время операции гибнет практически все население колонии, кроме девочки-подростка Кван А (Ерин Ха). Мастеру Чифу поручено доставить ее к Командованию, чтобы та могла поделиться сведениями об увиденном, однако во время полета приказ сменяется на убийство Кван. Впервые в жизни беспрекословно подчиняющийся солдат ослушается и скроется на корабле, на котором находится загадочная инопланетная технология, с помощью которой можно было бы переломить ход войны…

Страна: США
Продолжительность: ~00:55:00 серия
Перевод: Профессиональный (многоголосый, закадровый) LostFilm
Субтитры: Русские (Forced, Full), Английские

Файл
Формат: Matroska
Качество: WEB-DLRip-AVC
Видео: 1024x466 at 23.976 fps, [email protected], ~1474 kbps
Аудио: AAC, 2 ch, ~96 kbps - | Русский | Хало / Halo [02x01-04 из 8] (2024) WEB-DLRip-AVC от DoMiNo & селезень | LostFilm
Формат субтитров: softsub (SRT)

Авторизуйтесь для получения доступа к скачиванию

Нет аккаунта? Регистрация открыта и займёт меньше минуты

Вход Регистрация

x264 [info]: frame I:589 Avg QP:13.09 size: 48408
x264 [info]: frame P:14971 Avg QP:15.14 size: 16782
x264 [info]: frame B:50911 Avg QP:17.03 size: 4537

General
Unique ID : 245271016687446865606768473877877684101 (0xB8857AC3FA022BCC093D73C22D68F785)
Complete name : E:Halo.S02E02.WEB-DLRip.x264.seleZen.mkv
Format : Matroska
Format version : Version 4
File size : 520 MiB
Duration : 46 min 12 s
Overall bit rate : 1 572 kb/s
Frame rate : 23.976 FPS
Movie name : Halo.S02E02.WEB-DLRip.x264.seleZen
Encoded date : 2024-02-11 12:46:42 UTC
Writing application : mkvmerge v82.0 ('I'm The President') 64-bit
Writing library : libebml v1.4.5 + libmatroska v1.7.1
Cover : Yes
Attachments : cover.jpg / small_cover.jpg

Video
ID : 1
Format : AVC
Format/Info : Advanced Video Codec
Format profile : [email protected]
Format settings : CABAC / 10 Ref Frames
Format settings, CABAC : Yes
Format settings, Reference : 10 frames
Codec ID : V_MPEG4/ISO/AVC
Duration : 46 min 12 s
Bit rate : 1 474 kb/s
Width : 1 024 pixels
Height : 466 pixels
Display aspect ratio : 2.2:1
Frame rate mode : Constant
Frame rate : 23.976 (24000/1001) FPS
Color space : YUV
Chroma subsampling : 4:2:0
Bit depth : 8 bits
Scan type : Progressive
Bits/(Pixel*Frame) : 0.129
Stream size : 487 MiB (94%)
Title : -=DoMiNo=-
Writing library : x264 core 164 r3173 -DoMiNo
Encoding settings : cabac=1 / ref=10 / deblock=1:-2:-1 / analyse=0x3:0x133 / me=umh / subme=10 / psy=1 / psy_rd=1.01:0.15 / mixed_ref=1 / me_range=32 / chroma_me=1 / trellis=2 / 8x8dct=1 / cqm=0 / deadzone=21,11 / fast_pskip=0 / chroma_qp_offset=-3 / threads=16 / lookahead_threads=3 / sliced_threads=0 / nr=0 / decimate=0 / interlaced=0 / bluray_compat=0 / constrained_intra=0 / bframes=10 / b_pyramid=2 / b_adapt=2 / b_bias=0 / direct=1 / weightb=1 / open_gop=0 / weightp=2 / keyint=250 / keyint_min=23 / scenecut=40 / intra_refresh=0 / rc_lookahead=60 / rc=crf / mbtree=0 / crf=18.5 / qcomp=0.60 / qpmin=0 / qpmax=69 / qpstep=4 / vbv_maxrate=50000 / vbv_bufsize=62500 / crf_max=0.0 / nal_hrd=none / filler=0 / ip_ratio=1.40 / pb_ratio=1.24 / aq=1:0.90
Language : English
Default : Yes
Forced : No
Color range : Limited
Color primaries : BT.709
Transfer characteristics : BT.709
Matrix coefficients : BT.709

Audio
ID : 2
Format : AAC LC SBR
Format/Info : Advanced Audio Codec Low Complexity with Spectral Band Replication
Commercial name : HE-AAC
Format settings : Explicit
Codec ID : A_AAC-2
Duration : 45 min 52 s
Bit rate : 96.0 kb/s
Channel(s) : 2 channels
Channel layout : L R
Sampling rate : 48.0 kHz
Frame rate : 23.438 FPS (2048 SPF)
Compression mode : Lossy
Stream size : 31.1 MiB (6%)
Title : LostFilm
Language : Russian
Default : Yes
Forced : No

Text #1
ID : 3
Format : UTF-8
Codec ID : S_TEXT/UTF8
Codec ID/Info : UTF-8 Plain Text
Duration : 3 min 48 s
Bit rate : 6 b/s
Frame rate : 0.026 FPS
Count of elements : 6
Stream size : 193 Bytes (0%)
Title : Forced
Language : Russian
Default : No
Forced : No

Text #2
ID : 4
Format : UTF-8
Codec ID : S_TEXT/UTF8
Codec ID/Info : UTF-8 Plain Text
Duration : 43 min 32 s
Bit rate : 77 b/s
Frame rate : 0.216 FPS
Count of elements : 563
Stream size : 24.7 KiB (0%)
Title : Russian Full
Language : Russian
Default : No
Forced : No

Text #3
ID : 5
Format : UTF-8
Codec ID : S_TEXT/UTF8
Codec ID/Info : UTF-8 Plain Text
Duration : 46 min 8 s
Bit rate : 60 b/s
Frame rate : 0.269 FPS
Count of elements : 744
Stream size : 20.4 KiB (0%)
Title : English [SDH]
Language : English
Default : No
Forced : No

Другие фильмы
У данной публикации пока нет комментариев.
Будь первым, оставь своё мнение в комментариях!
Информация
Посетители, находящиеся в группе Гости, не могут оставлять комментарии к данной публикации.
Самый популярный релиз недели
Донаты
Мы в соц. сетях / RSS

Лучшие релизы месяца
Лучшие SD недели
Лучшие 720p недели
Лучшие 1080p недели
Лучшие 4K недели
Вы недавно смотрели
Реклама
Последние комментарии
...

korelov

23 февраля 2024 14:35

...

Desol

21 февраля 2024 00:28

...

diabloq

20 февраля 2024 14:17

...

slightlymad

17 февраля 2024 21:01

...

takezi

15 февраля 2024 22:10

Реклама