+4

Студенческая команда / Varsity Blues (1998) UHD BDRemux 2160p от селезень | 4K | HDR | Dolby Vision Profile 8 | P2

Информация о фильме
Название: Студенческая команда
Оригинальное название: Varsity Blues
Год выхода: 1998
Жанр: комедия, спорт, мелодрама, драма
Режиссер: Брайан Роббинс
В ролях: Джеймс Ван Дер Бик, Эми Смарт, Джон Войт, Пол Уокер, Рон Лестер, Скотт Каан, Ричард Лайнбэк, Эли Лартер, Эрик Джангманн, Джо Пихлер

О фильме: Вот уже 35 лет опытный тренер Бад Килмер тренирует студенческую команду «Койоты» из маленького городка в штате Техас. Килмер требователен и суров, от своих подопечных он непреклонно требует победы, чего бы она ни стоила. Когда в разгар футбольного сезона ведущий игрок «Койотов» получает тяжелую травму, Бад решает поставить на его место паренька по имени Джонатан Моксон. В того меньше всего привлекает перспектива стать звездой футбола: ему гораздо более по душе спокойное место на скамейке запасных, подальше от назойливого тренера. Теперь, оказавшись на месте ключевого игрока «Койотов», Моксон должен доказать себе и другим, чего он стоит в действительности.

Страна: США
Студия: Marquee Tollin/Robins, MTV Films, Paramount Pictures, Tova Laiter Production
Продолжительность: 01:44:39
Перевод: Профессиональный двухголосый

Качество: BDRemux 2160p
Видео: 3840x2160 at 23.976 fps, MPEG-H HEVC HDR Video, 58500 kbps
Аудио #01: 48 kHz, AC3, 5.1, 448 Kbps | Дублированный | Мосфильм-Мастер | RUS |Студенческая команда / Varsity Blues (1998) UHD BDRemux  2160p от селезень | 4K | HDR | Dolby Vision Profile 8 | P2
Аудио #02: 48 kHz, TrueHD, 5.1, 3673 Kbps | Оригинал | ENG |
Аудио #03: 48 kHz, AC3, 5.1, 640 Kbps | Оригинал | ENG |
Субтитры: Английские

Студенческая команда / Varsity Blues (1998) UHD BDRemux  2160p от селезень | 4K | HDR | Dolby Vision Profile 8 | P2

Авторизуйтесь для получения доступа к скачиванию

Нет аккаунта? Регистрация открыта и займёт меньше минуты

Вход Регистрация

General
Unique ID : 187453550192725529502195519159043806222 (0x8D063D94ABBA6C25C1C1F31D614ED40E)
Complete name : H:\VideoH\Varsity.Blues.1999.BDREMUX.2160p.HDR.DVP8.seleZen.mkv
Format : Matroska
Format version : Version 4
File size : 46.1 GiB
Duration : 1 h 44 min
Overall bit rate mode : Variable
Overall bit rate : 63.0 Mb/s
Frame rate : 23.976 FPS
Movie name : Varsity Blues 1999 from seleZen
Encoded date : 2024-02-06 20:46:29 UTC
Writing application : mkvmerge v80.0 ('Roundabout') 64-bit
Writing library : libebml v1.4.4 + libmatroska v1.7.1

Video
ID : 1
ID in the original source m : 4117 (0x1015)
Format : HEVC
Format/Info : High Efficiency Video Coding
Format profile : Main [email protected]@High
HDR format : Dolby Vision, Version 1.0, dvhe.08.06, BL+RPU, Blu-ray compatible / SMPTE ST 2086, HDR10 compatible
Codec ID : V_MPEGH/ISO/HEVC
Duration : 1 h 44 min
Bit rate : 58.5 Mb/s
Width : 3 840 pixels
Height : 2 160 pixels
Display aspect ratio : 16:9
Frame rate mode : Constant
Frame rate : 23.976 (24000/1001) FPS
Color space : YUV
Chroma subsampling : 4:2:0 (Type 2)
Bit depth : 10 bits
Bits/(Pixel*Frame) : 0.294
Stream size : 42.7 GiB (93%)
Language : English
Default : No
Forced : No
Color range : Limited
Color primaries : BT.2020
Transfer characteristics : PQ
Matrix coefficients : BT.2020 non-constant
Mastering display color pri : Display P3
Mastering display luminance : min: 0.0001 cd/m2, max: 1000 cd/m2
Original source medium : Blu-ray

Audio #1
ID : 2
Format : AC-3
Format/Info : Audio Coding 3
Commercial name : Dolby Digital
Codec ID : A_AC3
Duration : 1 h 44 min
Bit rate mode : Constant
Bit rate : 192 kb/s
Channel(s) : 2 channels
Channel layout : L R
Sampling rate : 48.0 kHz
Frame rate : 31.250 FPS (1536 SPF)
Compression mode : Lossy
Stream size : 144 MiB (0%)
Title : DVO
Language : Russian
Service kind : Complete Main
Default : Yes
Forced : No

Audio #2
ID : 3
Format : MLP FBA
Format/Info : Meridian Lossless Packing FBA
Commercial name : Dolby TrueHD
Codec ID : A_TRUEHD
Duration : 1 h 44 min
Bit rate mode : Variable
Bit rate : 3 673 kb/s
Maximum bit rate : 4 590 kb/s
Channel(s) : 6 channels
Channel layout : L R C LFE Ls Rs
Sampling rate : 48.0 kHz
Frame rate : 1 200.000 FPS (40 SPF)
Compression mode : Lossless
Stream size : 2.68 GiB (6%)
Title : Original
Language : English
Default : No
Forced : No

Audio #3
ID : 4
Format : AC-3
Format/Info : Audio Coding 3
Commercial name : Dolby Digital
Codec ID : A_AC3
Duration : 1 h 44 min
Bit rate mode : Constant
Bit rate : 640 kb/s
Channel(s) : 6 channels
Channel layout : L R C LFE Ls Rs
Sampling rate : 48.0 kHz
Frame rate : 31.250 FPS (1536 SPF)
Compression mode : Lossy
Stream size : 479 MiB (1%)
Language : English
Service kind : Complete Main
Default : No
Forced : No

Text
ID : 5
Format : UTF-8
Codec ID : S_TEXT/UTF8
Codec ID/Info : UTF-8 Plain Text
Duration : 1 h 39 min
Bit rate : 76 b/s
Frame rate : 0.257 FPS
Count of elements : 1540
Stream size : 56.2 KiB (0%)
Language : English
Default : No
Forced : No

Menu
00:00:00.000 : en:Глава 01
00:06:41.234 : en:Глава 02
00:09:13.303 : en:Глава 03
00:14:59.732 : en:Глава 04
00:18:50.379 : en:Глава 05
00:24:09.698 : en:Глава 06
00:27:01.912 : en:Глава 07
00:31:01.693 : en:Глава 08
00:34:11.758 : en:Глава 09
00:37:48.850 : en:Глава 10
00:43:41.828 : en:Глава 11
00:46:59.233 : en:Глава 12
00:49:18.080 : en:Глава 13
00:59:33.987 : en:Глава 14
01:03:56.207 : en:Глава 15
01:09:04.474 : en:Глава 16
01:13:24.108 : en:Глава 17
01:18:53.979 : en:Глава 18
01:26:00.489 : en:Глава 19
01:39:29.213 : en:Глава 20

Другие фильмы
У данной публикации пока нет комментариев.
Будь первым, оставь своё мнение в комментариях!
Информация
Посетители, находящиеся в группе Гости, не могут оставлять комментарии к данной публикации.
Самый популярный релиз недели
Донаты
Мы в соц. сетях / RSS

Лучшие релизы месяца
Лучшие SD недели
Лучшие 720p недели
Лучшие 1080p недели
Лучшие 4K недели
Вы недавно смотрели
Реклама
Последние комментарии
...

korelov

23 февраля 2024 14:35

...

Desol

21 февраля 2024 00:28

...

diabloq

20 февраля 2024 14:17

...

slightlymad

17 февраля 2024 21:01

...

takezi

15 февраля 2024 22:10

Реклама