+5

Капитан Марвел 2 / The Marvels (2023) BDRip 1080p от селезень | D

Информация о фильме
Название: Капитан Марвел 2
Оригинальное название: The Marvels
Год выхода: 2023
Жанр: фантастика, боевик, приключения
Режиссер: Ниа ДаКоста
В ролях: Бри Ларсон, Тейона Паррис, Иман Веллани, Сэмюэл Л. Джексон, Зави Эштон, Гари Льюис, Пак Со-джун, Зенобия Шрофф, Мохан Капур, Саагар Шайх

О фильме: Расследуя возникновение аномалии точки перехода, Кэрол Дэнверс и Моника Рамбо независимо друг от друга одновременно касаются её и тем самым спутывают свои силы с Камалой Хан. Теперь девушки меняются местами, когда кто-нибудь из них использует сверхспособности. А в это время предводительница кри с помощью одного из Квантовых наручей (точно такого же, какой достался Камале по наследству) пытается спасти свою планету от гибели, воруя ресурсы у других планет. Чтобы не допустить хаос, Кэрол, Монике и восторженной от грядущего приключения Камале предстоит научиться работать в команде.

Страна: США
Студия: Marvel Studios Inc.
Продолжительность: 01:44:44
Перевод(ы):
#1: Дублированный | MovieDalen
#2: Дублированный | Red Head Sound


Качество: BDRip 1080p
Видео: MPEG-4 AVC, 1920x804, 8281 Kbit/s, 23.976 fps
Аудио #01: 48 kHz, AC3, 5.1, 448 Kbps | Дублированный | MovieDalen | RUS |Капитан Марвел 2 / The Marvels (2023) BDRip 1080p от селезень | D
Аудио #02: 48 kHz, AC3, 5.1, 640 Kbps | Дублированный | Red Head Sound | RUS |
Аудио #03: 48 kHz, AC3, 5.1, 640 Kbps | Оригинал | ENG |
Субтитры: Русские (Forced, full), английские

Капитан Марвел 2 / The Marvels (2023) BDRip 1080p от селезень | D

Авторизуйтесь для получения доступа к скачиванию

Нет аккаунта? Регистрация открыта и займёт меньше минуты

Вход Регистрация

General
Unique ID : 318678810473998095319810062260749358049 (0xEFBF4E6E7BFFF4C6F288621592E653E1)
Complete name : H:\VideoH\The.Marvels.2023.BDRip.1080p.seleZen.mkv
Format : Matroska
Format version : Version 4
File size : 7.32 GiB
Duration : 1 h 44 min
Overall bit rate : 10.0 Mb/s
Frame rate : 23.976 FPS
Movie name : The Marvels 2023 от селезень
Encoded date : 2024-02-06 01:46:05 UTC
Writing application : mkvmerge v80.0 ('Roundabout') 64-bit
Writing library : libebml v1.4.4 + libmatroska v1.7.1

Video
ID : 1
Format : AVC
Format/Info : Advanced Video Codec
Format profile : [email protected]
Format settings : CABAC / 5 Ref Frames
Format settings, CABAC : Yes
Format settings, Reference : 5 frames
Codec ID : V_MPEG4/ISO/AVC
Duration : 1 h 44 min
Bit rate : 8 281 kb/s
Width : 1 920 pixels
Height : 804 pixels
Display aspect ratio : 2.40:1
Frame rate mode : Constant
Frame rate : 23.976 (24000/1001) FPS
Color space : YUV
Chroma subsampling : 4:2:0
Bit depth : 8 bits
Scan type : Progressive
Bits/(Pixel*Frame) : 0.224
Stream size : 6.06 GiB (83%)
Title : MTeam
Writing library : x264 core 157 r2938 2b00a84 TnP@MTeam Mod
Encoding settings : cabac=1 / ref=5 / deblock=1:-3:-3 / analyse=0x3:0x133 / me=umh / subme=10 / psy=1 / psy_rd=1.05:0.00 / mixed_ref=1 / me_range=32 / chroma_me=1 / trellis=2 / 8x8dct=1 / cqm=0 / deadzone=21,11 / fast_pskip=0 / chroma_qp_offset=-2 / threads=12 / lookahead_threads=2 / sliced_threads=0 / nr=0 / decimate=0 / interlaced=0 / bluray_compat=0 / constrained_intra=0 / bframes=8 / b_pyramid=2 / b_adapt=2 / b_bias=0 / direct=3 / weightb=1 / open_gop=0 / weightp=2 / keyint=250 / keyint_min=24 / scenecut=40 / intra_refresh=0 / rc_lookahead=250 / rc=crf / mbtree=0 / crf=16.8 / qcomp=0.60 / qpmin=0 / qpmax=69 / qpstep=4 / vbv_maxrate=62500 / vbv_bufsize=78125 / crf_max=0.0 / nal_hrd=none / filler=0 / ip_ratio=1.30 / pb_ratio=1.20 / aq=3:0.80
Language : English
Default : Yes
Forced : No
Color range : Limited
Color primaries : BT.709
Matrix coefficients : BT.709

Audio #1
ID : 2
Format : AC-3
Format/Info : Audio Coding 3
Commercial name : Dolby Digital
Codec ID : A_AC3
Duration : 1 h 44 min
Bit rate mode : Constant
Bit rate : 448 kb/s
Channel(s) : 6 channels
Channel layout : L R C LFE Ls Rs
Sampling rate : 48.0 kHz
Frame rate : 31.250 FPS (1536 SPF)
Compression mode : Lossy
Stream size : 336 MiB (4%)
Title : Dub_MovieDalen
Language : Russian
Service kind : Complete Main
Default : Yes
Forced : No

Audio #2
ID : 3
Format : AC-3
Format/Info : Audio Coding 3
Commercial name : Dolby Digital
Codec ID : A_AC3
Duration : 1 h 44 min
Bit rate mode : Constant
Bit rate : 640 kb/s
Channel(s) : 6 channels
Channel layout : L R C LFE Ls Rs
Sampling rate : 48.0 kHz
Frame rate : 31.250 FPS (1536 SPF)
Compression mode : Lossy
Stream size : 479 MiB (6%)
Title : Dub_Red Head Sound
Language : Russian
Service kind : Complete Main
Default : No
Forced : No

Audio #3
ID : 4
Format : AC-3
Format/Info : Audio Coding 3
Commercial name : Dolby Digital
Codec ID : A_AC3
Duration : 1 h 44 min
Bit rate mode : Constant
Bit rate : 640 kb/s
Channel(s) : 6 channels
Channel layout : L R C LFE Ls Rs
Sampling rate : 48.0 kHz
Frame rate : 31.250 FPS (1536 SPF)
Compression mode : Lossy
Stream size : 479 MiB (6%)
Title : Original
Language : English
Service kind : Complete Main
Default : No
Forced : No

Text #1
ID : 5
Format : UTF-8
Codec ID : S_TEXT/UTF8
Codec ID/Info : UTF-8 Plain Text
Duration : 1 h 33 min
Bit rate : 1 b/s
Frame rate : 0.004 FPS
Count of elements : 21
Stream size : 829 Bytes (0%)
Title : Forced
Language : Russian
Default : Yes
Forced : No

Text #2
ID : 6
Format : UTF-8
Codec ID : S_TEXT/UTF8
Codec ID/Info : UTF-8 Plain Text
Duration : 1 h 42 min
Bit rate : 75 b/s
Frame rate : 0.200 FPS
Count of elements : 1226
Stream size : 56.9 KiB (0%)
Title : Full
Language : Russian
Default : No
Forced : No

Text #3
ID : 7
Format : UTF-8
Codec ID : S_TEXT/UTF8
Codec ID/Info : UTF-8 Plain Text
Duration : 1 h 35 min
Bit rate : 55 b/s
Frame rate : 0.211 FPS
Count of elements : 1207
Stream size : 38.5 KiB (0%)
Title : Full
Language : English
Default : No
Forced : No

Text #4
ID : 8
Format : UTF-8
Codec ID : S_TEXT/UTF8
Codec ID/Info : UTF-8 Plain Text
Duration : 1 h 44 min
Bit rate : 64 b/s
Frame rate : 0.285 FPS
Count of elements : 1791
Stream size : 49.8 KiB (0%)
Title : SDH
Language : English
Default : No
Forced : No

Menu
00:00:00.000 : en:Chapter 01
00:04:20.969 : en:Chapter 02
00:07:03.006 : en:Chapter 03
00:11:09.711 : en:Chapter 04
00:14:14.270 : en:Chapter 05
00:21:09.018 : en:Chapter 06
00:27:19.888 : en:Chapter 07
00:29:42.739 : en:Chapter 08
00:33:25.503 : en:Chapter 09
00:38:08.077 : en:Chapter 10
00:43:50.253 : en:Chapter 11
00:48:06.133 : en:Chapter 12
00:50:26.815 : en:Chapter 13
00:52:31.023 : en:Chapter 14
00:58:52.070 : en:Chapter 15
01:05:07.695 : en:Chapter 16
01:09:47.683 : en:Chapter 17
01:17:14.547 : en:Chapter 18
01:23:57.032 : en:Chapter 19
01:27:25.031 : en:Chapter 20
01:29:50.010 : en:Chapter 21
01:32:04.102 : en:Chapter 22
01:33:11.085 : en:Chapter 23
01:35:53.831 : en:Chapter 24
01:37:35.183 : en:Chapter 25

Другие фильмы
У данной публикации пока нет комментариев.
Будь первым, оставь своё мнение в комментариях!
Информация
Посетители, находящиеся в группе Гости, не могут оставлять комментарии к данной публикации.
Самый популярный релиз недели
Донаты
Мы в соц. сетях / RSS

Лучшие релизы месяца
Лучшие SD недели
Лучшие 720p недели
Лучшие 1080p недели
Лучшие 4K недели
Вы недавно смотрели
Реклама
Последние комментарии
...

korelov

23 февраля 2024 14:35

...

Desol

21 февраля 2024 00:28

...

diabloq

20 февраля 2024 14:17

...

slightlymad

17 февраля 2024 21:01

...

takezi

15 февраля 2024 22:10

Реклама