+3

Тролли 3 / Trolls Band Together (2023) UHD BDRemux 2160p от селезень | 4K | HDR | Dolby Vision Profile 8 | P

Информация о фильме
Название: Тролли 3
Оригинальное название: Trolls Band Together
Год выхода: 2023
Жанр: мультфильм, фэнтези, комедия, приключения, семейный, музыка
Режиссер: Уолт Дорн, Тим Хейц
В ролях: Анна Кендрик, Джастин Тимберлейк, Камила Кабейо, Эрик Андре, Кид Кади, Кенан Томпсон, Уолт Дорн, Андерсон Паак, Рон Фанчес, Кунал Нэйэр

О фильме: Розочка узнает, что её возлюбленный Цветан когда-то был частью её любимого бойз-бэнда «Братаны» вместе со своими четырьмя братьями. Группа распалась, когда Цветан был ещё младенцем, и с тех пор он не видел своих братьев, но когда одного из них похищают неизвестные злодеи, Цветан и Розочка отправляются в путешествие, чтобы наконец-то воссоединить семью с помощью волшебной силы музыки.

Страна: США
Студия: DreamWorks Animation
Продолжительность: 01:31:29
Перевод: Профессиональный многоголосый | TVShows

Качество: BDRemux 2160p
Видео: 3840x2160 at 23.976 fps, MPEG-H HEVC HDR Video, 56300 kbps
Аудио #01: 48 kHz, AC3, 5.1, 384 Kbps | Профессиональный многоголосый | TVShows | RUS |Тролли 3 / Trolls Band Together (2023) UHD BDRemux 2160p от селезень | 4K | HDR | Dolby Vision Profile 8 | P
Аудио #02: 48 kHz, TrueHD, 7.1, 2853 Kbps | Оригинал | ENG |
Аудио #03: 48 kHz, AC3, 5.1, 448 Kbps | Оригинал | ENG |
Субтитры: Русские (Forced - songs), английские

Тролли 3 / Trolls Band Together (2023) UHD BDRemux 2160p от селезень | 4K | HDR | Dolby Vision Profile 8 | P

Авторизуйтесь для получения доступа к скачиванию

Нет аккаунта? Регистрация открыта и займёт меньше минуты

Вход Регистрация

General
Unique ID : 116271673043420981730897962673896221864 (0x57791C13FA3E52BFC0BCBF94216CECA8)
Complete name : \\192.168.1.215\download\Trolls.Band.Together.2023.BDREMUX.2160p.HDR.DVP8.seleZen.mkv
Format : Matroska
Format version : Version 4
File size : 38.4 GiB
Duration : 1 h 31 min
Overall bit rate mode : Variable
Overall bit rate : 60.1 Mb/s
Frame rate : 23.976 FPS
Movie name : Trolls.Band.Together.2023.from.seleZen
Encoded date : 2024-01-28 12:12:15 UTC
Writing application : mkvmerge v80.0 ('Roundabout') 64-bit
Writing library : libebml v1.4.4 + libmatroska v1.7.1

Video
ID : 1
ID in the original source m : 4117 (0x1015)
Format : HEVC
Format/Info : High Efficiency Video Coding
Format profile : Main [email protected]@High
HDR format : Dolby Vision, Version 1.0, dvhe.08.06, BL+RPU, Blu-ray compatible / SMPTE ST 2086, HDR10 compatible
Codec ID : V_MPEGH/ISO/HEVC
Duration : 1 h 31 min
Bit rate : 56.3 Mb/s
Width : 3 840 pixels
Height : 2 160 pixels
Display aspect ratio : 16:9
Frame rate mode : Constant
Frame rate : 23.976 (24000/1001) FPS
Color space : YUV
Chroma subsampling : 4:2:0 (Type 2)
Bit depth : 10 bits
Bits/(Pixel*Frame) : 0.283
Stream size : 36.0 GiB (94%)
Language : English
Default : No
Forced : No
Color range : Limited
Color primaries : BT.2020
Transfer characteristics : PQ
Matrix coefficients : BT.2020 non-constant
Mastering display color pri : Display P3
Mastering display luminance : min: 0.0050 cd/m2, max: 4000 cd/m2
Maximum Content Light Level : 1000 cd/m2
Maximum Frame-Average Light : 632 cd/m2
Original source medium : Blu-ray

Audio #1
ID : 2
Format : AC-3
Format/Info : Audio Coding 3
Commercial name : Dolby Digital
Codec ID : A_AC3
Duration : 1 h 31 min
Bit rate mode : Constant
Bit rate : 384 kb/s
Channel(s) : 6 channels
Channel layout : L R C LFE Ls Rs
Sampling rate : 48.0 kHz
Frame rate : 31.250 FPS (1536 SPF)
Compression mode : Lossy
Stream size : 251 MiB (1%)
Title : MVO_TVShows
Language : Russian
Service kind : Complete Main
Default : Yes
Forced : No

Audio #2
ID : 3
Format : MLP FBA 16-ch
Format/Info : Meridian Lossless Packing FBA with 16-channel presentation
Commercial name : Dolby TrueHD with Dolby Atmos
Codec ID : A_TRUEHD
Duration : 1 h 31 min
Bit rate mode : Variable
Bit rate : 2 853 kb/s
Maximum bit rate : 3 915 kb/s
Channel(s) : 8 channels
Channel layout : L R C LFE Ls Rs Lb Rb
Sampling rate : 48.0 kHz
Frame rate : 1 200.000 FPS (40 SPF)
Compression mode : Lossless
Stream size : 1.82 GiB (5%)
Title : Original
Language : English
Default : No
Forced : No
Number of dynamic objects : 11
Bed channel count : 1 channel
Bed channel configuration : LFE

Audio #3
ID : 4
Format : AC-3
Format/Info : Audio Coding 3
Commercial name : Dolby Digital
Codec ID : A_AC3
Duration : 1 h 31 min
Bit rate mode : Constant
Bit rate : 448 kb/s
Channel(s) : 6 channels
Channel layout : L R C LFE Ls Rs
Sampling rate : 48.0 kHz
Frame rate : 31.250 FPS (1536 SPF)
Compression mode : Lossy
Stream size : 293 MiB (1%)
Language : English
Service kind : Complete Main
Default : No
Forced : No

Text #1
ID : 5
Format : UTF-8
Codec ID : S_TEXT/UTF8
Codec ID/Info : UTF-8 Plain Text
Duration : 1 h 27 min
Bit rate : 73 b/s
Frame rate : 0.099 FPS
Count of elements : 522
Stream size : 47.1 KiB (0%)
Title : Forced
Language : Russian
Default : No
Forced : No

Text #2
ID : 6
Format : UTF-8
Codec ID : S_TEXT/UTF8
Codec ID/Info : UTF-8 Plain Text
Duration : 1 h 30 min
Bit rate : 104 b/s
Frame rate : 0.396 FPS
Count of elements : 2143
Stream size : 68.8 KiB (0%)
Title : SDH
Language : English
Default : No
Forced : No

Menu
00:00:00.000 : en:Глава 01
00:03:23.495 : en:Глава 02
00:07:43.463 : en:Глава 03
00:09:25.482 : en:Глава 04
00:12:23.284 : en:Глава 05
00:17:39.267 : en:Глава 06
00:22:18.170 : en:Глава 07
00:26:07.608 : en:Глава 08
00:30:46.595 : en:Глава 09
00:35:18.992 : en:Глава 10
00:40:30.762 : en:Глава 11
00:42:43.644 : en:Глава 12
00:47:24.425 : en:Глава 13
00:53:01.136 : en:Глава 14
00:57:38.121 : en:Глава 15
01:02:46.888 : en:Глава 16
01:07:54.612 : en:Глава 17
01:14:01.395 : en:Глава 18
01:18:53.979 : en:Глава 19
01:21:25.839 : en:Глава 20

Другие фильмы
У данной публикации пока нет комментариев.
Будь первым, оставь своё мнение в комментариях!
Информация
Посетители, находящиеся в группе Гости, не могут оставлять комментарии к данной публикации.
Самый популярный релиз недели
Донаты
Мы в соц. сетях / RSS

Лучшие релизы месяца
Лучшие SD недели
Лучшие 720p недели
Лучшие 1080p недели
Лучшие 4K недели
Вы недавно смотрели
Реклама
Последние комментарии
...

-=DoMiNo=-

9 апреля 2024 17:43

...

supermehanik

9 апреля 2024 16:22

...

selezinka

5 апреля 2024 16:20

...

Kirk1991

30 марта 2024 15:04

...

Robot

22 марта 2024 09:33

Реклама