+1

Поиск / Searching (2018) BDRip 1080p от селезень | iTunes

Информация о фильме
Название: Поиск
Оригинальное название: Searching
Год выхода: 2018
Жанр: Триллер, драма, детектив
Режиссер: Аниш Чаганти
В ролях: Джон Чо, Сара Сон, Алекс Джейн Го, Меган Лью, Кайя Доун Лау, Мишель Ла, Джозеф Ли, Доминик Хоффман, Сильвия Минасян, Мелисса Дисней

О фильме: Когда 16-летняя дочь Дэвида Кима пропадает без вести, местная полиция начинает расследование. На поиски выделяют детектива, но спустя 37 часов тот не находит ни единой зацепки. Тогда Дэвид решает заглянуть в ноутбук своей дочери. Через устройства, программы и сайты, которые люди ежедневно используют для общения, Дэвиду необходимо найти след своей дочери, прежде чем она исчезнет навсегда.

Страна: США, Россия
Студия: Bazelevs Entertainment, Bazelevs Production
Продолжительность: 01:42:22
Перевод: Дублированный | iTunes

Качество: BDRip 1080p
Видео: MPEG-4 AVC, 1920x1080, 10.2 Mbit/s, 23.976 fps
Звук:
Аудио #01: 48 kHz, AC3, 5.1, 384 Kbps | iTunes | RUS
Аудио #02: 48 kHz, DTS, 5.1, 1510 Kbps | Оригинал | ENG
Субтитры: Русские (Forced, full), английские

Авторизуйтесь для получения доступа к скачиванию

Нет аккаунта? Регистрация открыта и займёт меньше минуты

Вход Регистрация

General
Unique ID : 266959991530261346408415578704342355676 (0xC8D69FC938C0A912B58935A4192B0EDC)
Complete name : D:Video111Searching.2018.BDRip.1080p.selezen.mkv
Format : Matroska
Format version : Version 4
File size : 8.65 GiB
Duration : 1 h 42 min
Overall bit rate : 12.1 Mb/s
Movie name : Searching 2018 from селезень
Encoded date : UTC 2018-11-25 02:12:49
Writing application : mkvmerge v28.2.0 ('The Awakening') 64-bit
Writing library : libebml v1.3.6 + libmatroska v1.4.9

Video
ID : 1
Format : AVC
Format/Info : Advanced Video Codec
Format profile : [email protected]
Format settings : CABAC / 4 Ref Frames
Format settings, CABAC : Yes
Format settings, ReFrames : 4 frames
Codec ID : V_MPEG4/ISO/AVC
Duration : 1 h 42 min
Bit rate : 10.2 Mb/s
Width : 1 920 pixels
Height : 1 080 pixels
Display aspect ratio : 16:9
Frame rate mode : Constant
Frame rate : 23.976 (24000/1001) FPS
Color space : YUV
Chroma subsampling : 4:2:0
Bit depth : 8 bits
Scan type : Progressive
Bits/(Pixel*Frame) : 0.205
Stream size : 7.29 GiB (84%)
Title : selezen
Writing library : x264 core 148 r2705kMod 3f5ed56
Encoding settings : cabac=1 / ref=4 / deblock=1:-2:-2 / analyse=0x3:0x133 / me=umh / subme=10 / psy=1 / fade_compensate=0.00 / psy_rd=1.05:0.07 / mixed_ref=1 / me_range=32 / chroma_me=1 / trellis=2 / 8x8dct=1 / cqm=0 / deadzone=21,11 / fast_pskip=0 / chroma_qp_offset=-3 / threads=12 / lookahead_threads=2 / sliced_threads=0 / nr=0 / decimate=0 / interlaced=0 / bluray_compat=0 / constrained_intra=0 / fgo=0 / bframes=8 / b_pyramid=2 / b_adapt=2 / b_bias=0 / direct=3 / weightb=1 / open_gop=0 / weightp=2 / keyint=240 / keyint_min=23 / scenecut=40 / intra_refresh=0 / rc_lookahead=50 / rc=2pass / mbtree=0 / bitrate=10200 / ratetol=1.0 / qcomp=0.60 / qpmin=0 / qpmax=51 / qpstep=4 / cplxblur=20.0 / qblur=0.5 / vbv_maxrate=50000 / vbv_bufsize=62500 / nal_hrd=none / filler=0 / ip_ratio=1.40 / pb_ratio=1.30 / aq=3:0.80
Language : English
Default : Yes
Forced : No

Audio #1
ID : 2
Format : AC-3
Format/Info : Audio Coding 3
Commercial name : Dolby Digital
Codec ID : A_AC3
Duration : 1 h 42 min
Bit rate mode : Constant
Bit rate : 384 kb/s
Channel(s) : 6 channels
Channel layout : L R C LFE Ls Rs
Sampling rate : 48.0 kHz
Frame rate : 31.250 FPS (1536 SPF)
Bit depth : 16 bits
Compression mode : Lossy
Stream size : 281 MiB (3%)
Title : iTunes
Language : Russian
Service kind : Complete Main
Default : Yes
Forced : Yes

Audio #2
ID : 3
Format : DTS
Format/Info : Digital Theater Systems
Codec ID : A_DTS
Duration : 1 h 42 min
Bit rate mode : Constant
Bit rate : 1 509 kb/s
Channel(s) : 6 channels
Channel layout : C L R Ls Rs LFE
Sampling rate : 48.0 kHz
Frame rate : 93.750 FPS (512 SPF)
Bit depth : 24 bits
Compression mode : Lossy
Stream size : 1.08 GiB (12%)
Title : Original
Language : English
Default : No
Forced : No

Text #1
ID : 4
Format : UTF-8
Codec ID : S_TEXT/UTF8
Codec ID/Info : UTF-8 Plain Text
Duration : 1 h 36 min
Bit rate : 53 b/s
Count of elements : 532
Stream size : 37.9 KiB (0%)
Title : Forced (Text labels)
Language : Russian
Default : Yes
Forced : Yes

Text #2
ID : 5
Format : UTF-8
Codec ID : S_TEXT/UTF8
Codec ID/Info : UTF-8 Plain Text
Duration : 1 h 36 min
Bit rate : 78 b/s
Count of elements : 984
Stream size : 55.8 KiB (0%)
Title : Full (only voice)
Language : Russian
Default : No
Forced : No

Text #3
ID : 6
Format : UTF-8
Codec ID : S_TEXT/UTF8
Codec ID/Info : UTF-8 Plain Text
Duration : 1 h 32 min
Bit rate : 52 b/s
Count of elements : 1020
Stream size : 35.9 KiB (0%)
Language : English
Default : No
Forced : No

Menu
00:00:00.000 : :00:00:00.000
00:06:25.385 : :00:06:25.385
00:12:41.636 : :00:12:41.636
00:20:13.546 : :00:20:13.546
00:23:12.850 : :00:23:12.850
00:31:01.651 : :00:31:01.651
00:35:49.647 : :00:35:49.647
00:39:39.460 : :00:39:39.460
00:47:27.845 : :00:47:27.845
00:53:31.708 : :00:53:31.708
00:59:16.928 : :00:59:16.928
01:05:29.217 : :01:05:29.217
01:13:07.258 : :01:13:07.258
01:21:14.620 : :01:21:14.620
01:26:07.204 : :01:26:07.204
01:34:32.792 : :01:34:32.792

Другие фильмы
У данной публикации пока нет комментариев.
Будь первым, оставь своё мнение в комментариях!
Информация
Посетители, находящиеся в группе Гости, не могут оставлять комментарии к данной публикации.
Самый популярный релиз недели
Донаты
Мы в соц. сетях / RSS

Лучшие релизы месяца
Лучшие SD недели
Лучшие 720p недели
Лучшие 1080p недели
Лучшие 4K недели
Вы недавно смотрели
Реклама
Последние комментарии
...

rmzshka

15 мая 2024 13:43

...

Andrey_Vladimirovich

13 мая 2024 18:12

...

Robot

13 мая 2024 16:53

...

rmzshka

13 мая 2024 16:21

...

supermehanik

13 мая 2024 02:03

Реклама