+16

Миграция / Migration (2023) BDRip-AVC от DoMiNo & селезень | P

Информация о фильме
Название: Миграция
Оригинальное название: Migration
Год выпуска: 2023
Жанр: мультфильм, приключения, комедия, фэнтези
Режиссер: Бенжамин Реннер / Benjamin Renner, Гейло Хомси / Guylo Homsy
В ролях: Кумэйл Нанджиани, Элизабет Бэнкс, Изабела Монер, Дэнни ДеВито, Кэрол Кэйн, Аквафина, Кигэн-Майкл Ки, Дэвид Митчелл, Борис Реленже, Бенжамен Реннер, Дебра Уилсон, Крис Рено, Карлос Алазраки, Джон ДеМита, Ларэйн Ньюман

О фильме:
Семейство кряков находится в затруднительном положении: пока отец Мак Маллард доволен тем, что его родные всегда будут в безопасности, живя в пруду в Новой Англии, мама Пэм стремится встряхнуть их и показать своим детям — сыну-подростку Даксу и маленькой дочке Гвен — каким большим и многогранным может быть мир.
После того, как семейство мигрирующих уток приземляется на их пруд с захватывающими рассказами о далёких местах, Пэм уговаривает Мака отправиться в семейное путешествие через Нью-Йорк на тропическую Ямайку. Но всё было бы слишком просто, если бы их планам суждено было сбыться.

Выпущено: США, Франция, Канада / Universal Pictures, Illumination Entertainment
Продолжительность: 01:22:54
Перевод 1: Профессиональный (многоголосый, закадровый) | Jaskier
Перевод 2: Профессиональный (многоголосый, закадровый) | TVShows
Субтитры: Русские (Full), Английские (Full, SDH)

Файл
Формат: Matroska
Качество: BDRip-AVC
Видео: 1024x428 at 23.976 fps, [email protected], ~1898 kbps
Аудио 1: AC3, 6 ch, ~384 kbps - | Русский | Миграция / Migration (2023) BDRip-AVC от DoMiNo & селезень | P | Jaskier
Аудио 2: AC3, 6 ch, ~384 kbps - | Русский | | TVShows
Формат субтитров: softsub (SRT)

Авторизуйтесь для получения доступа к скачиванию

Нет аккаунта? Регистрация открыта и займёт меньше минуты

Вход Регистрация

General
Unique ID: 287460865507106078341841496622055787503 (0xD842F2E945D782A2FF5188BE54478BEF)
Complete name: I: Migration.2023.2xMVO.BDRip.x264.seleZen.mkv
Format: Matroska
Format version: Version 4
File size: 1.46 GiB
Duration: 1 h 22 min
Overall bit rate: 2 525 kb/s
Frame rate: 23.976 FPS
Movie name: Migration.2023.2xMVO.BDRip.x264.seleZen
Encoded date: 20.02.2024 16:38:48 UTC
Writing application: mkvmerge v82.0 ('I’m The President') 64-bit
Writing library: libebml v1.4.5 + libmatroska v1.7.1
Cover: Yes
Attachments: cover.jpg / small_cover.jpg

Video
ID: 1
Format: AVC
Format/Info: Advanced Video Codec
Format profile: [email protected]
Format settings: CABAC / 14 Ref Frames
Format settings, CABAC: Yes
Format settings, Reference: 14 frames
Codec ID: V_MPEG4/ISO/AVC
Duration: 1 h 22 min
Bit rate: 1 757 kb/s
Width: 1 024 pixels
Height: 428 pixels
Display aspect ratio: 2.40:1
Frame rate mode: Constant
Frame rate: 23.976 (24000/1001) FPS
Color space: YUV
Chroma subsampling: 4:2:0
Bit depth: 8 bits
Scan type: Progressive
Bits/(Pixel*Frame): 0.167
Stream size: 1.02 GiB (69%)
Title: -=DoMiNo=-
Writing library: x264 core 164 r3179 12426f5
Encoding settings: cabac=1 / ref=14 / deblock=1:-2:-2 / analyse=0×3:0×133 / me=umh / subme=10 / psy=1 / psy_rd=1.03:0.05 / mixed_ref=1 / me_range=32 / chroma_me=1 / trellis=2 / 8×8dct=1 / cqm=0 / deadzone=21,11 / fast_pskip=0 / chroma_qp_offset=-3 / threads=17 / lookahead_threads=3 / sliced_threads=0 / nr=0 / decimate=0 / interlaced=0 / bluray_compat=0 / constrained_intra=0 / bframes=10 / b_pyramid=2 / b_adapt=2 / b_bias=0 / direct=3 / weightb=1 / open_gop=0 / weightp=2 / keyint=250 / keyint_min=23 / scenecut=40 / intra_refresh=0 / rc_lookahead=60 / rc=2pass / mbtree=0 / bitrate=1757 / ratetol=1.0 / qcomp=0.70 / qpmin=0 / qpmax=69 / qpstep=4 / cplxblur=20.0 / qblur=0.5 / vbv_maxrate=50000 / vbv_bufsize=62500 / nal_hrd=none / filler=0 / ip_ratio=1.22 / pb_ratio=1.30 / aq=2:0.90
Language: English
Default: Yes
Forced: No

Audio #1
ID: 2
Format: AC-3
Format/Info: Audio Coding 3
Commercial name: Dolby Digital
Codec ID: A_AC3
Duration: 1 h 22 min
Bit rate mode: Constant
Bit rate: 384 kb/s
Channel (s): 6 channels
Channel layout: L R C LFE Ls Rs
Sampling rate: 48.0 kHz
Frame rate: 31.250 FPS (1536 SPF)
Compression mode: Lossy
Stream size: 228 MiB (15%)
Title: MVO — Jaskier
Language: Russian
Service kind: Complete Main
Default: Yes
Forced: No

Audio #2
ID: 3
Format: AC-3
Format/Info: Audio Coding 3
Commercial name: Dolby Digital
Codec ID: A_AC3
Duration: 1 h 22 min
Bit rate mode: Constant
Bit rate: 384 kb/s
Channel (s): 6 channels
Channel layout: L R C LFE Ls Rs
Sampling rate: 48.0 kHz
Frame rate: 31.250 FPS (1536 SPF)
Compression mode: Lossy
Stream size: 228 MiB (15%)
Title: MVO — TVShows
Language: Russian
Service kind: Complete Main
Default: No
Forced: No

Text #1
ID: 4
Format: UTF-8
Codec ID: S_TEXT/UTF8
Codec ID/Info: UTF-8 Plain Text
Duration: 1 h 16 min
Bit rate: 111 b/s
Frame rate: 0.297 FPS
Count of elements: 1373
Stream size: 62.8 KiB (0%)
Title: Full
Language: Russian
Default: No
Forced: No

Text #2
ID: 5
Format: UTF-8
Codec ID: S_TEXT/UTF8
Codec ID/Info: UTF-8 Plain Text
Duration: 1 h 16 min
Bit rate: 59 b/s
Frame rate: 0.298 FPS
Count of elements: 1372
Stream size: 33.7 KiB (0%)
Title: Full
Language: English
Default: No
Forced: No

Text #3
ID: 6
Format: UTF-8
Codec ID: S_TEXT/UTF8
Codec ID/Info: UTF-8 Plain Text
Duration: 1 h 22 min
Bit rate: 70 b/s
Frame rate: 0.355 FPS
Count of elements: 1762
Stream size: 42.6 KiB (0%)
Title: SDH
Language: English
Default: No
Forced: No

Menu
00:00:00.000: en: Chapter 01
00:04:50.707: en: Chapter 02
00:07:42.671: en: Chapter 03
00:12:51.020: en: Chapter 04
00:16:18.227: en: Chapter 05
00:20:38.237: en: Chapter 06
00:24:04.568: en: Chapter 07
00:28:43.847: en: Chapter 08
00:33:57.661: en: Chapter 09
00:35:41.139: en: Chapter 10
00:39:22.694: en: Chapter 11
00:44:15.653: en: Chapter 12
00:48:39.416: en: Chapter 13
00:53:02.388: en: Chapter 14
00:58:43.687: en: Chapter 15
01:04:28.948: en: Chapter 16
01:08:28.104: en: Chapter 17
01:10:42.321: en: Chapter 18
01:15:53.841: en: Chapter 19
01:17:20.469: en: Chapter 20

Другие фильмы
У данной публикации пока нет комментариев.
Будь первым, оставь своё мнение в комментариях!
Информация
Посетители, находящиеся в группе Гости, не могут оставлять комментарии к данной публикации.
Самый популярный релиз недели
Донаты
Мы в соц. сетях / RSS

Лучшие релизы месяца
Лучшие SD недели
Лучшие 720p недели
Лучшие 1080p недели
Лучшие 4K недели
Вы недавно смотрели
Реклама
Последние комментарии
...

-=DoMiNo=-

9 апреля 2024 17:43

...

supermehanik

9 апреля 2024 16:22

...

selezinka

5 апреля 2024 16:20

...

Kirk1991

30 марта 2024 15:04

...

Robot

22 марта 2024 09:33

Реклама