+18

Настоящий детектив / True Detective [04x01-06 из 06] (2024) WEB-DLRip-AVC от DoMiNo & селезень | P

Информация о фильме
Название: Настоящий детектив
Оригинальное название: True Detective
Год выхода: 2024
Жанр: Детектив, криминал, триллер, драма
Режиссер: Кэри Дзёдзи Фукунага, Исса Лопес, Дэниэл Сакхайм
В ролях: Джоди Фостер, Кали Рейс, Кристофер Экклстон, Джон Хоукс, Фиона Шоу, Финн Беннетт, Анна Ламбе и другие.

О фильме:
Новая глава криминальной антологии получила название «Ночная страна». В центре сюжета окажутся детективы Лиз Денверс и Эванджелин Наварро (Джоди Фостер и Кали Рейс), расследующие таинственное исчезновение работников арктической исследовательской станции на Аляске. Чтобы докопаться до истины, следователям придется разобраться с собственными тайнами, погребенными под вечными льдами.

Страна: США
Студия: Anonymous Content, HBO Entertainment, Passenger
Продолжительность: ~ 00:58:00
Перевод: Профессиональный (многоголосый, закадровый) | NewComers
Субтитры: Русские, английские
Внимание: Присутствует ненормативная лексика (18+)

Файл
Формат: Matroska
Качество: WEB-DLRip-AVC
Видео: 1024x512 at 23.976 fps, [email protected], ~1653 kbps
Аудио: AC3, 6 ch, ~448 kbps - | Русский | Настоящий детектив / True Detective [04x01-06 из 06] (2024) WEB-DLRip-AVC от DoMiNo & селезень | P
Формат субтитров: softsub (SRT)

Авторизуйтесь для получения доступа к скачиванию

Нет аккаунта? Регистрация открыта и займёт меньше минуты

Вход Регистрация

x264 [info]: frame I: 774 Avg QP: 16.77 size: 56052
x264 [info]: frame P: 18844 Avg QP: 18.70 size: 18041
x264 [info]: frame B: 64568 Avg QP: 20.75 size: 5296

General
Unique ID: 98348426286452389975774007826368566040 (0×49FD37C965F5FA0D4D7A5D0C2B0E1318)
Complete name: E: True.Detective.S04.2024.WEB-DLRip.x264.seleZenTrue.Detective.S04E01.WEB-DLRip.x264.seleZen.mkv
Format: Matroska
Format version: Version 4
File size: 880 MiB
Duration: 58 min 31 s
Overall bit rate: 2 103 kb/s
Frame rate: 23.976 FPS
Movie name: True.Detective.S04E01.WEB-DLRip.x264.seleZen
Encoded date: 17.01.2024 09:41:10 UTC
Writing application: mkvmerge v82.0 ('I’m The President') 64-bit
Writing library: libebml v1.4.5 + libmatroska v1.7.1
Cover: Yes
Attachments: cover.jpg / small_cover.jpg

Video
ID: 1
Format: AVC
Format/Info: Advanced Video Codec
Format profile: [email protected]
Format settings: CABAC / 10 Ref Frames
Format settings, CABAC: Yes
Format settings, Reference: 10 frames
Codec ID: V_MPEG4/ISO/AVC
Duration: 58 min 31 s
Bit rate: 1 653 kb/s
Width: 1 024 pixels
Height: 512 pixels
Display aspect ratio: 2.000
Frame rate mode: Constant
Frame rate: 23.976 (24000/1001) FPS
Color space: YUV
Chroma subsampling: 4:2:0
Bit depth: 8 bits
Scan type: Progressive
Bits/(Pixel*Frame): 0.131
Stream size: 692 MiB (79%)
Title: -=DoMiNo=-
Writing library: x264 core 164 r3173 -DoMiNo
Encoding settings: cabac=1 / ref=10 / deblock=1:-1:-1 / analyse=0×3:0×133 / me=umh / subme=10 / psy=1 / psy_rd=1.00:0.05 / mixed_ref=1 / me_range=32 / chroma_me=1 / trellis=2 / 8×8dct=1 / cqm=0 / deadzone=21,11 / fast_pskip=0 / chroma_qp_offset=-3 / threads=16 / lookahead_threads=4 / sliced_threads=0 / nr=0 / decimate=1 / interlaced=0 / bluray_compat=0 / constrained_intra=0 / bframes=12 / b_pyramid=2 / b_adapt=2 / b_bias=0 / direct=1 / weightb=1 / open_gop=0 / weightp=2 / keyint=250 / keyint_min=23 / scenecut=40 / intra_refresh=0 / rc_lookahead=60 / rc=crf / mbtree=0 / crf=20.0 / qcomp=0.60 / qpmin=0 / qpmax=69 / qpstep=4 / vbv_maxrate=50000 / vbv_bufsize=62500 / crf_max=0.0 / nal_hrd=none / filler=0 / ip_ratio=1.40 / pb_ratio=1.30 / aq=3:0.90
Language: English
Default: Yes
Forced: No
Color range: Limited
Color primaries: BT.709
Transfer characteristics: BT.709
Matrix coefficients: BT.709

Audio
ID: 2
Format: AC-3
Format/Info: Audio Coding 3
Commercial name: Dolby Digital
Codec ID: A_AC3
Duration: 58 min 30 s
Bit rate mode: Constant
Bit rate: 448 kb/s
Channel (s): 6 channels
Channel layout: L R C LFE Ls Rs
Sampling rate: 48.0 kHz
Frame rate: 31.250 FPS (1536 SPF)
Compression mode: Lossy
Stream size: 187 MiB (21%)
Title: NewComers
Language: Russian
Service kind: Complete Main
Default: Yes
Forced: No

Text #1
ID: 3
Format: UTF-8
Codec ID: S_TEXT/UTF8
Codec ID/Info: UTF-8 Plain Text
Duration: 56 min 49 s
Bit rate: 72 b/s
Frame rate: 0.212 FPS
Count of elements: 724
Stream size: 30.3 KiB (0%)
Language: Russian
Default: No
Forced: No

Text #2
ID: 4
Format: UTF-8
Codec ID: S_TEXT/UTF8
Codec ID/Info: UTF-8 Plain Text
Duration: 54 min 30 s
Bit rate: 50 b/s
Frame rate: 0.207 FPS
Count of elements: 677
Stream size: 20.4 KiB (0%)
Language: English (US)
Default: No
Forced: No

Menu
00:00:00.000: Chapter 1
00:06:22.090: Intro
00:07:27.907: Chapter 2
00:57:28.000: Credits

Другие фильмы
Комментарии:

...
Desol 21 января 2024 01:05
0

bosom,

Ну во первых это сериал

Во вторых первые 2 сезона были очень хороши, 3й хоть и пытался держаться на уровне, но на мой взгляд просел по всем показателями. Плюс именно с него в сериал начали проскакивать западные приколы...

...
bosom 20 января 2024 03:08
0

не понимаю почему такой большой рейтинг у такого унылого и душного фильма, пипец какой-то...

Информация
Посетители, находящиеся в группе Гости, не могут оставлять комментарии к данной публикации.
Самый популярный релиз недели
Донаты
Мы в соц. сетях / RSS

Лучшие релизы месяца
Лучшие SD недели
Лучшие 720p недели
Лучшие 1080p недели
Лучшие 4K недели
Вы недавно смотрели
Реклама
Последние комментарии
...

korelov

23 февраля 2024 14:35

...

Desol

21 февраля 2024 00:28

...

diabloq

20 февраля 2024 14:17

...

slightlymad

17 февраля 2024 21:01

...

takezi

15 февраля 2024 22:10

Реклама