+18

Воздушное ограбление / Lift (2024) WEB-DLRip 720p от DoMiNo & селезень | D, P2

Информация о фильме
Название: Воздушное ограбление
Оригинальное название: Lift
Год выпуска: 2024
Жанр: боевик, комедия, криминал
Режиссер: Ф. Гэри Грей / F. Gary Gray
В ролях: Кевин Харт, Гугу Мбата-Роу, Винсент Д'Онофрио, Урсула Корберо, Билли Магнуссен, Жан Рено, Сэм Уортингтон, Бёрн Горман, Вайвек Калра, Джейкоб Баталон, Кэролайн Лонк, Пол Андерсон, Росс Андерсон, Жесс Лиоден, Алфредо Таварес

О фильме:
Сайрус — профессиональный вор, вместе со своей международной командой проворачивающий самые невероятные и сложные аферы. Его бывшая девушка теперь работает в ФБР и могла бы с легкостью арестовать Сайруса, но к его удивлению… официально просит его совершить ограбление. Вместе они должны украсть золотые слитки на сумму 100 миллионов долларов прямиком из самолета, направляющегося из Лондона в Цюрих, находясь в полете. Только так они смогут предотвратить готовящуюся террористическую атаку. «Воздушное ограбление» (2024) — криминальный боевик с Кевином Хартом, Гугу Эмбата-Ро, Сэмом Уортингтоном, Жаном Рено и Винсентом Д’Онофрио.

Выпущено: США, 6th & Idaho Productions, Genre Pictures, Hartbeat Productions, Marzano Films
Продолжительность: 01:46:43
Перевод 1: Дублированный (неофициальнный) | Red Head Sound
Перевод 2: Профессиональный двухголосый | ViruseProject
Субтитры: Русские (Forced, Full), Английские

Файл
Формат: Matroska
Качество: WEB-DLRip 720p
Видео: 1280x534 at 24.000 fps, [email protected], ~2536 kbps
Аудио 1: AC3, 6 ch, ~448 kbps - | Русский | Воздушное ограбление / Lift (2024) WEB-DLRip 720p от DoMiNo & селезень | D, P2 | Red Head Sound
Аудио 2: AC3, 6 ch, ~448 kbps - | Русский | | ViruseProject
Аудио 3: AC3, 6 ch, ~448 kbps - | Английский |
Формат субтитров: softsub (SRT)

Авторизуйтесь для получения доступа к скачиванию

Нет аккаунта? Регистрация открыта и займёт меньше минуты

Вход Регистрация

General
Unique ID: 158560397469681940843767638546239972104 (0×77499F2AE1D70C16133D41120B53E308)
Complete name: O: Lift.2024.WEB-DLRip.720p.x264.seleZen.mkv
Format: Matroska
Format version: Version 4
File size: 2.89 GiB
Duration: 1 h 46 min
Overall bit rate: 3 883 kb/s
Frame rate: 24.000 FPS
Movie name: Lift.2024.WEB-DLRip.720p.x264.seleZen
Encoded date: 09.02.2024 06:24:26 UTC
Writing application: mkvmerge v82.0 ('I’m The President') 64-bit
Writing library: libebml v1.4.5 + libmatroska v1.7.1
Cover: Yes
Attachments: cover.jpg / small_cover.jpg

Video
ID: 1
Format: AVC
Format/Info: Advanced Video Codec
Format profile: [email protected]
Format settings: CABAC / 5 Ref Frames
Format settings, CABAC: Yes
Format settings, Reference: 5 frames
Codec ID: V_MPEG4/ISO/AVC
Duration: 1 h 46 min
Bit rate: 2 536 kb/s
Width: 1 280 pixels
Height: 534 pixels
Display aspect ratio: 2.40:1
Frame rate mode: Constant
Frame rate: 24.000 FPS
Color space: YUV
Chroma subsampling: 4:2:0
Bit depth: 8 bits
Scan type: Progressive
Bits/(Pixel*Frame): 0.155
Stream size: 1.89 GiB (65%)
Title: -=DoMiNo=-
Writing library: x264 core 164 r3172 -DoMiNo
Encoding settings: cabac=1 / ref=5 / deblock=1:0:0 / analyse=0×3:0×133 / me=umh / subme=10 / psy=1 / psy_rd=1.00:0.00 / mixed_ref=1 / me_range=32 / chroma_me=1 / trellis=2 / 8×8dct=1 / cqm=0 / deadzone=21,11 / fast_pskip=0 / chroma_qp_offset=-2 / threads=17 / lookahead_threads=4 / sliced_threads=0 / nr=0 / decimate=1 / interlaced=0 / bluray_compat=0 / constrained_intra=0 / bframes=14 / b_pyramid=2 / b_adapt=2 / b_bias=0 / direct=1 / weightb=1 / open_gop=0 / weightp=2 / keyint=250 / keyint_min=24 / scenecut=40 / intra_refresh=0 / rc_lookahead=60 / rc=crf / mbtree=0 / crf=18.0 / qcomp=0.60 / qpmin=0 / qpmax=69 / qpstep=4 / vbv_maxrate=50000 / vbv_bufsize=62500 / crf_max=0.0 / nal_hrd=none / filler=0 / ip_ratio=1.40 / pb_ratio=1.25 / aq=1:1.00
Language: English
Default: Yes
Forced: No

Audio #1
ID: 2
Format: AC-3
Format/Info: Audio Coding 3
Commercial name: Dolby Digital
Codec ID: A_AC3
Duration: 1 h 46 min
Bit rate mode: Constant
Bit rate: 448 kb/s
Channel (s): 6 channels
Channel layout: L R C LFE Ls Rs
Sampling rate: 48.0 kHz
Frame rate: 31.250 FPS (1536 SPF)
Compression mode: Lossy
Stream size: 342 MiB (12%)
Title: Dub -Red Head Sound
Language: Russian
Service kind: Complete Main
Default: Yes
Forced: No

Audio #2
ID: 3
Format: AC-3
Format/Info: Audio Coding 3
Commercial name: Dolby Digital
Codec ID: A_AC3
Duration: 1 h 46 min
Bit rate mode: Constant
Bit rate: 448 kb/s
Channel (s): 6 channels
Channel layout: L R C LFE Ls Rs
Sampling rate: 48.0 kHz
Frame rate: 31.250 FPS (1536 SPF)
Compression mode: Lossy
Stream size: 342 MiB (12%)
Title: DVO -ViruseProject
Language: Russian
Service kind: Complete Main
Default: No
Forced: No

Audio #3
ID: 4
Format: AC-3
Format/Info: Audio Coding 3
Commercial name: Dolby Digital
Codec ID: A_AC3
Duration: 1 h 46 min
Bit rate mode: Constant
Bit rate: 448 kb/s
Channel (s): 6 channels
Channel layout: L R C LFE Ls Rs
Sampling rate: 48.0 kHz
Frame rate: 31.250 FPS (1536 SPF)
Compression mode: Lossy
Stream size: 342 MiB (12%)
Language: English
Service kind: Complete Main
Default: No
Forced: No

Text #1
ID: 5
Format: UTF-8
Codec ID: S_TEXT/UTF8
Codec ID/Info: UTF-8 Plain Text
Duration: 1 h 30 min
Bit rate: 2 b/s
Frame rate: 0.009 FPS
Count of elements: 47
Stream size: 1.45 KiB (0%)
Title: Forced
Language: Russian
Default: No
Forced: No

Text #2
ID: 6
Format: UTF-8
Codec ID: S_TEXT/UTF8
Codec ID/Info: UTF-8 Plain Text
Duration: 1 h 43 min
Bit rate: 90 b/s
Frame rate: 0.230 FPS
Count of elements: 1424
Stream size: 68.3 KiB (0%)
Title: Full
Language: Russian
Default: No
Forced: No

Text #3
ID: 7
Format: UTF-8
Codec ID: S_TEXT/UTF8
Codec ID/Info: UTF-8 Plain Text
Duration: 1 h 25 min
Bit rate: 0 b/s
Frame rate: 0.005 FPS
Count of elements: 28
Stream size: 577 Bytes (0%)
Title: Forced
Language: English
Default: No
Forced: No

Text #4
ID: 8
Format: UTF-8
Codec ID: S_TEXT/UTF8
Codec ID/Info: UTF-8 Plain Text
Duration: 1 h 36 min
Bit rate: 70 b/s
Frame rate: 0.253 FPS
Count of elements: 1472
Stream size: 49.7 KiB (0%)
Title: Full
Language: English
Default: No
Forced: No

Text #5
ID: 9
Format: UTF-8
Codec ID: S_TEXT/UTF8
Codec ID/Info: UTF-8 Plain Text
Duration: 1 h 44 min
Bit rate: 78 b/s
Frame rate: 0.291 FPS
Count of elements: 1819
Stream size: 60.0 KiB (0%)
Title: SDH
Language: English
Default: No
Forced: No

Menu
00:00:00.000: en: Part 01
01:35:47.450: en: Credits

Другие фильмы
У данной публикации пока нет комментариев.
Будь первым, оставь своё мнение в комментариях!
Информация
Посетители, находящиеся в группе Гости, не могут оставлять комментарии к данной публикации.
Самый популярный релиз недели
Донаты
Мы в соц. сетях / RSS

Лучшие релизы месяца
Лучшие SD недели
Лучшие 720p недели
Лучшие 1080p недели
Лучшие 4K недели
Вы недавно смотрели
Реклама
Последние комментарии
...

korelov

23 февраля 2024 14:35

...

Desol

21 февраля 2024 00:28

...

diabloq

20 февраля 2024 14:17

...

slightlymad

17 февраля 2024 21:01

...

takezi

15 февраля 2024 22:10

Реклама