+9

На несколько долларов больше / For A Few Dollars More / Per qualche dollaro in più (1965) UHD BDRemux 2160p от селезень | 4K | SDR | Лицензия

Информация о фильме
Название: На несколько долларов больше
Оригинальное название: For A Few Dollars More / Per qualche dollaro in più
Год выхода: 1965
Жанр: вестерн, драма, боевик
Режиссер: Серджио Леоне
В ролях: Клинт Иствуд, Ли Ван Клиф, Джан Мария Волонте, Мара Крупп, Луиджи Пистилли, Клаус Кински, Luis Rodríguez, Бенито Стефанелли, Панос Пападопулос, Альдо Самбрель

О фильме: Заработать несколько лишних долларов честным путем на диком Западе не проблема, если у тебя есть проверенный кольт и разрешение властей на отстрел бандитов. Этим путем и идут бок о бок профессиональные охотники за головами негодяев «Человек без имени» и полковник Мортимер, общая цель которых - преступная банда мексиканца Индио.

Страна: Италия, Испания, Германия (ФРГ)
Студия: Arturo González Producciones Cinematográficas S.A., Constantin Film, Produzioni Europee Associati (PEA)
Продолжительность: 02:12:08
Перевод: Профессиональный многоголосый | Лицензия Blu-Ray CEE

Качество: BDRemux 2160p
Видео: 3840x2160 at 23.976 fps, MPEG-H HEVC SDR Video, 85000 kbps
Аудио #01: 48 kHz, AC3, 5.1, 448 Kbps | Профессиональный многоголосый | Лицензия Blu-Ray CEE | RUS |На несколько долларов больше / For A Few Dollars More / Per qualche dollaro in più (1965) UHD BDRemux 2160p от селезень | 4K | SDR | Лицензия
Аудио #02: 48 kHz, DTS-HD MA, 5.1, 2996 Kbps | Оригинал | ENG |
Субтитры: Русские (Forced, full), английские

***Имеется вставка на английском языке, переведенная форсированными русскими субтитрами!

На несколько долларов больше / For A Few Dollars More / Per qualche dollaro in più (1965) UHD BDRemux 2160p от селезень | 4K | SDR | Лицензия

Авторизуйтесь для получения доступа к скачиванию

Нет аккаунта? Регистрация открыта и займёт меньше минуты

Вход Регистрация

General
Unique ID : 147442698711903401402138426179270065551 (0x6EEC6E4C62B7C2960D511C70BDA9BD8F)
Complete name : H:\VideoH\2\For.a.Few.Dollars.More.1965.BDREMUX.2160p.HDR.seleZen.mkv
Format : Matroska
Format version : Version 4
File size : 81.6 GiB
Duration : 2 h 12 min
Overall bit rate mode : Variable
Overall bit rate : 88.4 Mb/s
Frame rate : 23.976 FPS
Movie name : For a Few Dollars More 1965 from seleZen
Encoded date : 2024-01-13 21:15:45 UTC
Writing application : mkvmerge v80.0 ('Roundabout') 64-bit
Writing library : libebml v1.4.4 + libmatroska v1.7.1

Video
ID : 1
Format : HEVC
Format/Info : High Efficiency Video Coding
Format profile : Main [email protected]@High
Codec ID : V_MPEGH/ISO/HEVC
Duration : 2 h 12 min
Bit rate : 85.0 Mb/s
Width : 3 840 pixels
Height : 2 160 pixels
Display aspect ratio : 16:9
Frame rate mode : Constant
Frame rate : 23.976 (24000/1001) FPS
Color space : YUV
Chroma subsampling : 4:2:0 (Type 2)
Bit depth : 10 bits
Bits/(Pixel*Frame) : 0.427
Time code of first frame : 00:59:58:00
Stream size : 78.5 GiB (96%)
Writing library : ATEME Titan File 3.9.7 (4.9.7.0)
Language : English
Default : Yes
Forced : No
Color range : Limited
Color primaries : BT.709
Transfer characteristics : BT.709
Matrix coefficients : BT.709

Audio #1
ID : 2
Format : AC-3
Format/Info : Audio Coding 3
Commercial name : Dolby Digital
Codec ID : A_AC3
Duration : 2 h 12 min
Bit rate mode : Constant
Bit rate : 448 kb/s
Channel(s) : 6 channels
Channel layout : L R C LFE Ls Rs
Sampling rate : 48.0 kHz
Frame rate : 31.250 FPS (1536 SPF)
Compression mode : Lossy
Stream size : 423 MiB (1%)
Title : MVO [Blu-Ray CEE]
Language : Russian
Service kind : Complete Main
Default : Yes
Forced : No

Audio #2
ID : 3
Format : DTS XLL
Format/Info : Digital Theater Systems
Commercial name : DTS-HD Master Audio
Codec ID : A_DTS
Duration : 2 h 12 min
Bit rate mode : Variable
Bit rate : 2 996 kb/s
Channel(s) : 6 channels
Channel layout : C L R Ls Rs LFE
Sampling rate : 48.0 kHz
Frame rate : 93.750 FPS (512 SPF)
Bit depth : 24 bits
Compression mode : Lossless
Stream size : 2.77 GiB (3%)
Title : Original
Language : English
Default : No
Forced : No

Text #1
ID : 4
Format : UTF-8
Codec ID : S_TEXT/UTF8
Codec ID/Info : UTF-8 Plain Text
Duration : 14 s 306 ms
Bit rate : 144 b/s
Frame rate : 0.419 FPS
Count of elements : 6
Stream size : 259 Bytes (0%)
Title : Forced
Language : Russian
Default : Yes
Forced : No

Text #2
ID : 5
Format : UTF-8
Codec ID : S_TEXT/UTF8
Codec ID/Info : UTF-8 Plain Text
Duration : 2 h 7 min
Bit rate : 39 b/s
Frame rate : 0.100 FPS
Count of elements : 765
Stream size : 36.7 KiB (0%)
Title : Full
Language : Russian
Default : No
Forced : No

Text #3
ID : 6
Format : UTF-8
Codec ID : S_TEXT/UTF8
Codec ID/Info : UTF-8 Plain Text
Duration : 2 h 5 min
Bit rate : 25 b/s
Frame rate : 0.101 FPS
Count of elements : 758
Stream size : 23.2 KiB (0%)
Title : Full
Language : English
Default : No
Forced : No

Menu
00:00:00.000 : en:Глава 01
00:13:06.452 : en:Глава 02
00:29:35.232 : en:Глава 03
00:45:21.385 : en:Глава 04
00:57:17.100 : en:Глава 05
01:10:10.915 : en:Глава 06
01:21:48.070 : en:Глава 07
01:35:25.887 : en:Глава 08
01:50:59.820 : en:Глава 09
02:01:23.318 : en:Глава 10

Другие фильмы
У данной публикации пока нет комментариев.
Будь первым, оставь своё мнение в комментариях!
Информация
Посетители, находящиеся в группе Гости, не могут оставлять комментарии к данной публикации.
Самый популярный релиз недели
Донаты
Мы в соц. сетях / RSS

Лучшие релизы месяца
Лучшие SD недели
Лучшие 720p недели
Лучшие 1080p недели
Лучшие 4K недели
Вы недавно смотрели
Реклама
Последние комментарии
...

-=DoMiNo=-

9 апреля 2024 17:43

...

supermehanik

9 апреля 2024 16:22

...

selezinka

5 апреля 2024 16:20

...

Kirk1991

30 марта 2024 15:04

...

Robot

22 марта 2024 09:33

Реклама