+12

День благодарения / Thanksgiving (2023) BDRip-AVC от DoMiNo & селезень | P

Информация о фильме
Название: День благодарения
Оригинальное название: Thanksgiving
Год выпуска: 2023
Жанр: Ужасы, детектив, триллер
Режиссер: Элай Рот / Eli Roth
В ролях: Рик Хоффман, Эддисон Рэй, Джина Гершон, Патрик Демпси, Майло Манхейм, Карен Клише, Нелл Верлак, Шейлин Гриффин, Дженна Уоррен, Мика Амонсен

О фильме:
Плимут, штат Массачусетс. Давка в торговом центре в Чёрную пятницу, совпавшую с Днём благодарения — празднике, зародившемся в этом городке, — унесла жизни нескольких человек. Год спустя, надев маску первого местного губернатора Джона Карвера и украв из музея его топор, неизвестный начинает охоту на виновных в той трагедии.

Страна: США, Канада, Австралия
Студия: Cream Productions, Dragonfly Entertainment, Electromagnetic Productions, Ethereal Visage Productions, Spyglass Media Group, TriStar Pictures, TSG Entertainment
Продолжительность: 01:45:59
Перевод 1: Профессиональный (многоголосый, закадровый) | TVShows
Перевод 2: Профессиональный (многоголосый, закадровый) | NewStudio 18 +
Перевод 3: Профессиональный (многоголосый, закадровый) | LineFilm 18 +
Субтитры: Русские (Forced, 2x Full), английские

Файл
Формат: Matroska
Качество: BDRip-AVC [Thanksgiving.2023.1080p.BluRay.REMUX.AVC.DTS-HD.MA.5.1-TRiToN]
Видео: 1024x428 at 23.976 fps, [email protected], ~1770 kbps
Аудио 1: AC3, 6 ch, ~384 kbps - | Русский | День благодарения / Thanksgiving (2023) BDRip-AVC от DoMiNo & селезень | P | TVShows
Аудио 2: AC3, 6 ch, ~448 kbps - | Русский | | NewStudio
Аудио 3: AC3, 6 ch, ~448 kbps - | Русский | | LineFilm
Формат субтитров: softsub (SRT)

Авторизуйтесь для получения доступа к скачиванию

Нет аккаунта? Регистрация открыта и займёт меньше минуты

Вход Регистрация

General
Unique ID : 14673402672001003034621526383030447135 (0xB09FE9B6E9F05D0C70576F2C7382C1F)
Complete name : O:Thanksgiving.2023.BDRip.x264.seleZen.mkv
Format : Matroska
Format version : Version 4
File size : 2.26 GiB
Duration : 1 h 45 min
Overall bit rate : 3 051 kb/s
Frame rate : 23.976 FPS
Movie name : Thanksgiving.2023.BDRip.x264.seleZen
Encoded date : 2024-01-30 13:52:06 UTC
Writing application : mkvmerge v82.0 ('I'm The President') 64-bit
Writing library : libebml v1.4.5 + libmatroska v1.7.1
Cover : Yes
Attachments : cover.jpg / small_cover.jpg

Video
ID : 1
Format : AVC
Format/Info : Advanced Video Codec
Format profile : [email protected]
Format settings : CABAC / 14 Ref Frames
Format settings, CABAC : Yes
Format settings, Reference : 14 frames
Codec ID : V_MPEG4/ISO/AVC
Duration : 1 h 45 min
Bit rate : 1 768 kb/s
Width : 1 024 pixels
Height : 428 pixels
Display aspect ratio : 2.40:1
Frame rate mode : Constant
Frame rate : 23.976 (24000/1001) FPS
Color space : YUV
Chroma subsampling : 4:2:0
Bit depth : 8 bits
Scan type : Progressive
Bits/(Pixel*Frame) : 0.168
Stream size : 1.31 GiB (58%)
Title : -=DoMiNo=-
Writing library : x264 core 164 r3173 -DoMiNo
Encoding settings : cabac=1 / ref=14 / deblock=1:-2:-2 / analyse=0x3:0x133 / me=umh / subme=10 / psy=1 / psy_rd=1.05:0.05 / mixed_ref=1 / me_range=32 / chroma_me=1 / trellis=2 / 8x8dct=1 / cqm=0 / deadzone=21,11 / fast_pskip=0 / chroma_qp_offset=-3 / threads=17 / lookahead_threads=3 / sliced_threads=0 / nr=0 / decimate=0 / interlaced=0 / bluray_compat=0 / constrained_intra=0 / bframes=10 / b_pyramid=2 / b_adapt=2 / b_bias=0 / direct=1 / weightb=1 / open_gop=0 / weightp=2 / keyint=250 / keyint_min=23 / scenecut=40 / intra_refresh=0 / rc_lookahead=60 / rc=crf / mbtree=0 / crf=17.8 / qcomp=0.60 / qpmin=0 / qpmax=69 / qpstep=4 / vbv_maxrate=50000 / vbv_bufsize=62500 / crf_max=0.0 / nal_hrd=none / filler=0 / ip_ratio=1.37 / pb_ratio=1.30 / aq=3:0.90
Language : English
Default : Yes
Forced : No

Audio #1
ID : 2
Format : AC-3
Format/Info : Audio Coding 3
Commercial name : Dolby Digital
Codec ID : A_AC3
Duration : 1 h 45 min
Bit rate mode : Constant
Bit rate : 384 kb/s
Channel(s) : 6 channels
Channel layout : L R C LFE Ls Rs
Sampling rate : 48.0 kHz
Frame rate : 31.250 FPS (1536 SPF)
Compression mode : Lossy
Stream size : 291 MiB (13%)
Title : MVO TVShows
Language : Russian
Service kind : Complete Main
Default : Yes
Forced : No

Audio #2
ID : 3
Format : AC-3
Format/Info : Audio Coding 3
Commercial name : Dolby Digital
Codec ID : A_AC3
Duration : 1 h 45 min
Bit rate mode : Constant
Bit rate : 448 kb/s
Channel(s) : 6 channels
Channel layout : L R C LFE Ls Rs
Sampling rate : 48.0 kHz
Frame rate : 31.250 FPS (1536 SPF)
Compression mode : Lossy
Stream size : 340 MiB (15%)
Title : MVO NewStudio 18+
Language : Russian
Service kind : Complete Main
Default : No
Forced : No

Audio #3
ID : 4
Format : AC-3
Format/Info : Audio Coding 3
Commercial name : Dolby Digital
Codec ID : A_AC3
Duration : 1 h 45 min
Bit rate mode : Constant
Bit rate : 448 kb/s
Channel(s) : 6 channels
Channel layout : L R C LFE Ls Rs
Sampling rate : 48.0 kHz
Frame rate : 31.250 FPS (1536 SPF)
Compression mode : Lossy
Stream size : 340 MiB (15%)
Title : MVO LineFilm 18+
Language : Russian
Service kind : Complete Main
Default : No
Forced : No

Text #1
ID : 5
Format : UTF-8
Codec ID : S_TEXT/UTF8
Codec ID/Info : UTF-8 Plain Text
Duration : 1 h 34 min
Bit rate : 3 b/s
Frame rate : 0.010 FPS
Count of elements : 54
Stream size : 2.18 KiB (0%)
Title : Forced
Language : Russian
Default : No
Forced : No

Text #2
ID : 6
Format : UTF-8
Codec ID : S_TEXT/UTF8
Codec ID/Info : UTF-8 Plain Text
Duration : 1 h 45 min
Bit rate : 97 b/s
Frame rate : 0.209 FPS
Count of elements : 1321
Stream size : 75.0 KiB (0%)
Title : Full -Anna Paravyan
Language : Russian
Default : No
Forced : No

Text #3
ID : 7
Format : UTF-8
Codec ID : S_TEXT/UTF8
Codec ID/Info : UTF-8 Plain Text
Duration : 1 h 45 min
Bit rate : 99 b/s
Frame rate : 0.238 FPS
Count of elements : 1509
Stream size : 76.9 KiB (0%)
Title : Full -stirlooo 18+
Language : Russian
Default : No
Forced : No

Text #4
ID : 8
Format : UTF-8
Codec ID : S_TEXT/UTF8
Codec ID/Info : UTF-8 Plain Text
Duration : 1 h 44 min
Bit rate : 65 b/s
Frame rate : 0.273 FPS
Count of elements : 1708
Stream size : 49.8 KiB (0%)
Title : Full
Language : English
Default : No
Forced : No

Text #5
ID : 9
Format : UTF-8
Codec ID : S_TEXT/UTF8
Codec ID/Info : UTF-8 Plain Text
Duration : 1 h 44 min
Bit rate : 58 b/s
Frame rate : 0.200 FPS
Count of elements : 1252
Stream size : 44.6 KiB (0%)
Title : Full
Language : English
Default : No
Forced : No

Text #6
ID : 10
Format : UTF-8
Codec ID : S_TEXT/UTF8
Codec ID/Info : UTF-8 Plain Text
Duration : 1 h 44 min
Bit rate : 77 b/s
Frame rate : 0.337 FPS
Count of elements : 2118
Stream size : 59.6 KiB (0%)
Title : SDH
Language : English
Default : No
Forced : No

Menu
00:00:00.000 : en:Chapter 01
00:04:34.900 : en:Chapter 02
00:13:37.400 : en:Chapter 03
00:19:25.039 : en:Chapter 04
00:26:19.745 : en:Chapter 05
00:30:52.267 : en:Chapter 06
00:37:54.272 : en:Chapter 07
00:44:57.695 : en:Chapter 08
00:50:09.381 : en:Chapter 09
00:56:48.280 : en:Chapter 10
01:00:53.650 : en:Chapter 11
01:07:13.112 : en:Chapter 12
01:13:08.134 : en:Chapter 13
01:20:01.296 : en:Chapter 14
01:28:43.193 : en:Chapter 15
01:34:18.862 : en:Chapter 16
01:40:32.944 : en:Chapter 17

Другие фильмы
У данной публикации пока нет комментариев.
Будь первым, оставь своё мнение в комментариях!
Информация
Посетители, находящиеся в группе Гости, не могут оставлять комментарии к данной публикации.
Самый популярный релиз недели
Донаты
Мы в соц. сетях / RSS

Лучшие релизы месяца
Лучшие SD недели
Лучшие 720p недели
Лучшие 1080p недели
Лучшие 4K недели
Вы недавно смотрели
Реклама
Последние комментарии
...

-=DoMiNo=-

9 апреля 2024 17:43

...

supermehanik

9 апреля 2024 16:22

...

selezinka

5 апреля 2024 16:20

...

Kirk1991

30 марта 2024 15:04

...

Robot

22 марта 2024 09:33

Реклама