+10

Чарли Пуля / Fast Charlie (2023) BDRip 1080p от селезень | D

Информация о фильме
Название: Чарли Пуля
Оригинальное название: Fast Charlie
Год выпуска: 2023
Жанр: Боевик, криминал, драма
Режиссер: Филлип Нойс / Phillip Noyce
В ролях: Пирс Броснан, Морена Баккарин, Джеймс Каан, Гбенга Акиннагбе, Колин Сэлмон, Мэтт Кук, Бреннан Кил Кук, Тоби Хасс, Фредрик Лене, Мези Этвуд, Линдси Дж. Смит, Шэрон Глесс, Джейк Гродник

О фильме:
Чарли Свифт по прозвищу Пуля — хладнокровный киллер и мастер по решению сложных проблем. Много лет он верой и правдой служит своему боссу, мафиози Стэну, пока от того не решает избавиться конкурент. Избежавший расправы герой встает на путь мести, заручившись неожиданной поддержкой Марси — бывшей жены бандита, некогда погибшего от рук Чарли.

Выпущено: США / Ashland Hill Media Finance, BCD Travel, Boomtown Media Partners, Foresight Unlimited, Golden Liberty Films, Streamline Global Group, UTA Independent Film Group
Продолжительность: 01:30:23
Перевод: Дублированный | Pride Production
Субтитры: Русские (Full), Английские

Файл
Формат: Matroska
Качество: BDRip 1080p
Видео: 1920x800 at 23.976 fps, [email protected], ~10500 kbps
Аудио 1: AC3, 6 ch, ~448 kbps - | Русский | Чарли Пуля / Fast Charlie (2023) BDRip 1080p от селезень | D
Аудио 2: E-AC3, 6 ch, ~448 kbps - | Русский |
Аудио 3: AC3, 6 ch, ~640 kbps - | Английский |
Формат субтитров: softsub (SRT)

Авторизуйтесь для получения доступа к скачиванию

Нет аккаунта? Регистрация открыта и займёт меньше минуты

Вход Регистрация

General
Unique ID : 265782127074862190940005023368409009603 (0xC7F3C695B187260FA1688E50E5884DC3)
Complete name : E:WorkEFast.Charlie.2023.BDRip.1080p.seleZen.mkv
Format : Matroska
Format version : Version 4
File size : 7.60 GiB
Duration : 1 h 30 min
Overall bit rate : 12.0 Mb/s
Frame rate : 23.976 FPS
Movie name : Fast Charlie (2023) from seleZen
Encoded date : 2024-06-18 12:52:44 UTC
Writing application : mkvmerge v85.0 ('Shame For You') 64-bit
Writing library : libebml v1.4.5 + libmatroska v1.7.1

Video
ID : 1
Format : AVC
Format/Info : Advanced Video Codec
Format profile : [email protected]
Format settings : CABAC / 5 Ref Frames
Format settings, CABAC : Yes
Format settings, Reference : 5 frames
Codec ID : V_MPEG4/ISO/AVC
Duration : 1 h 30 min
Bit rate : 10.5 Mb/s
Width : 1 920 pixels
Height : 800 pixels
Display aspect ratio : 2.40:1
Frame rate mode : Constant
Frame rate : 23.976 (24000/1001) FPS
Color space : YUV
Chroma subsampling : 4:2:0
Bit depth : 8 bits
Scan type : Progressive
Bits/(Pixel*Frame) : 0.285
Stream size : 6.63 GiB (87%)
Writing library : x264 core 164 r3164 seleZen
Encoding settings : cabac=1 / ref=5 / deblock=1:-2:-2 / analyse=0x3:0x133 / me=umh / subme=10 / psy=1 / psy_rd=1.02:0.01 / mixed_ref=1 / me_range=32 / chroma_me=1 / trellis=2 / 8x8dct=1 / cqm=0 / deadzone=21,11 / fast_pskip=0 / chroma_qp_offset=-3 / threads=25 / lookahead_threads=4 / sliced_threads=0 / nr=0 / decimate=0 / interlaced=0 / bluray_compat=0 / constrained_intra=0 / bframes=9 / b_pyramid=2 / b_adapt=2 / b_bias=0 / direct=3 / weightb=1 / open_gop=0 / weightp=2 / keyint=240 / keyint_min=23 / scenecut=40 / intra_refresh=0 / rc_lookahead=60 / rc=2pass / mbtree=0 / bitrate=10500 / ratetol=1.0 / qcomp=0.60 / qpmin=0 / qpmax=51 / qpstep=4 / cplxblur=20.0 / qblur=0.5 / vbv_maxrate=50000 / vbv_bufsize=62500 / nal_hrd=none / filler=0 / ip_ratio=1.40 / pb_ratio=1.30 / aq=3:0.80
Language : English
Default : Yes
Forced : No

Audio #1
ID : 2
Format : AC-3
Format/Info : Audio Coding 3
Commercial name : Dolby Digital
Codec ID : A_AC3
Duration : 1 h 30 min
Bit rate mode : Constant
Bit rate : 448 kb/s
Channel(s) : 6 channels
Channel layout : L R C LFE Ls Rs
Sampling rate : 48.0 kHz
Frame rate : 31.250 FPS (1536 SPF)
Compression mode : Lossy
Stream size : 290 MiB (4%)
Title : Dub
Language : Russian
Service kind : Complete Main
Default : Yes
Forced : No
AC3_metadata cmixlev : -3.0 dB
surmixlev : -6 dB

Audio #2
ID : 3
Format : E-AC-3
Format/Info : Enhanced AC-3
Commercial name : Dolby Digital Plus
Codec ID : A_EAC3
Duration : 1 h 30 min
Bit rate mode : Constant
Bit rate : 448 kb/s
Channel(s) : 6 channels
Channel layout : L R C LFE Ls Rs
Sampling rate : 48.0 kHz
Frame rate : 31.250 FPS (1536 SPF)
Compression mode : Lossy
Stream size : 290 MiB (4%)
Title : Dub
Language : Russian
Service kind : Complete Main
Default : No
Forced : No

Audio #3
ID : 4
Format : AC-3
Format/Info : Audio Coding 3
Commercial name : Dolby Digital
Codec ID : A_AC3
Duration : 1 h 30 min
Bit rate mode : Constant
Bit rate : 640 kb/s
Channel(s) : 6 channels
Channel layout : L R C LFE Ls Rs
Sampling rate : 48.0 kHz
Frame rate : 31.250 FPS (1536 SPF)
Compression mode : Lossy
Stream size : 414 MiB (5%)
Title : Original
Language : English
Service kind : Complete Main
Default : No
Forced : No
AC3_metadata cmixlev : -3.0 dB
surmixlev : -3 dB

Text #1
ID : 5
Format : UTF-8
Codec ID : S_TEXT/UTF8
Codec ID/Info : UTF-8 Plain Text
Duration : 1 h 23 min
Bit rate : 76 b/s
Frame rate : 0.204 FPS
Count of elements : 1023
Stream size : 46.8 KiB (0%)
Title : Full
Language : Russian
Default : No
Forced : No

Text #2
ID : 6
Format : UTF-8
Codec ID : S_TEXT/UTF8
Codec ID/Info : UTF-8 Plain Text
Duration : 1 h 26 min
Bit rate : 50 b/s
Frame rate : 0.199 FPS
Count of elements : 1035
Stream size : 31.9 KiB (0%)
Title : Full
Language : English (US)
Default : No
Forced : No

Text #3
ID : 7
Format : UTF-8
Codec ID : S_TEXT/UTF8
Codec ID/Info : UTF-8 Plain Text
Duration : 1 h 29 min
Bit rate : 57 b/s
Frame rate : 0.232 FPS
Count of elements : 1240
Stream size : 37.2 KiB (0%)
Title : SDH
Language : English (US)
Default : No
Forced : No

Menu
00:00:00.000 : en:Chapter 01
00:12:31.917 : en:Chapter 02
00:24:14.119 : en:Chapter 03
00:38:13.541 : en:Chapter 04
00:52:06.331 : en:Chapter 05
01:04:03.089 : en:Chapter 06
01:14:17.202 : en:Chapter 07
01:25:15.110 : en:Chapter 08

Другие фильмы
У данной публикации пока нет комментариев.
Будь первым, оставь своё мнение в комментариях!
Информация
Посетители, находящиеся в группе Гости, не могут оставлять комментарии к данной публикации.
Самый популярный релиз недели
Донаты
Мы в соц. сетях / RSS

Лучшие релизы месяца
Лучшие SD недели
Лучшие 720p недели
Лучшие 1080p недели
Лучшие 4K недели
Вы недавно смотрели
Реклама
Последние комментарии
...

rmzshka

12 июля 2024 11:30

...

Rustik99

12 июля 2024 10:11

...

-=DoMiNo=-

11 июля 2024 23:42

...

rmzshka

11 июля 2024 11:28

...

-=DoMiNo=-

10 июля 2024 15:08

Реклама