+6

Ангел мести / Судьба / Fatum (2023) BDRip-AVC от DoMiNo & селезень | D

Информация о фильме
Название: Ангел мести / Судьба
Оригинальное название: Fatum
Год выпуска: 2023
Жанр: Триллер, драма, криминал
Режиссер: Хуан Галиньянес
В ролях: Луис Тосар, Алекс Гарсия, Елена Анайя, Арон Пипер, Мария Луиза Майоль, Пепа Грация, Итан Альварес, Валентина Киза, Дерек Леон, Ксабьер Дейв

О фильме:
Заядлый игрок Серхио, получив наводку, возвращается в букмекерскую контору, пытаясь вернуть все проигранные деньги, но другой игрок врывается в заведение с пистолетом, и один выстрел навсегда меняет его жизнь. И не только его.

Страна: Испания, Франция
Студия: Amazon Prime Video, Axencia Galega das Industrias Culturais (AGADIC), Canal+ [fr], Ciné, Films Distribution, Instituto de la Cinematografia y de las Artes Audiovisuales, Radio Televisión Española (RTVE), Televisión de Galicia (TVG) S.A., Vaca Films, Xunta de Galicia
Продолжительность: 01:31:12
Перевод: Дублированный | Akimbo Production
Субтитры: Русские (Forced), Английские

Файл
Формат: Matroska
Качество: BDRip-AVC
Видео: 1024x428 at 23.976 fps, [email protected], ~1835 kbps
Аудио: AC3, 6 ch, ~448 kbps - | Русский | Ангел мести / Судьба / Fatum (2023) BDRip-AVC от DoMiNo & селезень | D
Формат субтитров: softsub (SRT)

Авторизуйтесь для получения доступа к скачиванию

Нет аккаунта? Регистрация открыта и займёт меньше минуты

Вход Регистрация

x264 [info]: frame I: 957 Avg QP: 14.69 size: 46713
x264 [info]: frame P: 26705 Avg QP: 17.02 size: 20809
x264 [info]: frame B: 103546 Avg QP: 18.87 size: 6314

General
Unique ID: 233177167582236935011592438238598187010 (0xAF6C49F7EEC6BC2C6EEDABAA52ACC802)
Complete name: U: Fatum.2023.DUB.BDRip.x264.seleZen.mkv
Format: Matroska
Format version: Version 4
File size: 1.45 GiB
Duration: 1 h 31 min
Overall bit rate: 2 283 kb/s
Frame rate: 23.976 FPS
Movie name: Fatum.2023.DUB.BDRip.x264.seleZen
Encoded date: 07.07.2024 20:27:04 UTC
Writing application: mkvmerge v85.0 ('Shame For You') 64-bit
Writing library: libebml v1.4.5 + libmatroska v1.7.1
Cover: Yes
Attachments: cover.jpg / small_cover.jpg

Video
ID: 1
Format: AVC
Format/Info: Advanced Video Codec
Format profile: [email protected]
Format settings: CABAC / 14 Ref Frames
Format settings, CABAC: Yes
Format settings, Reference: 14 frames
Codec ID: V_MPEG4/ISO/AVC
Duration: 1 h 31 min
Bit rate: 1 835 kb/s
Width: 1 024 pixels
Height: 428 pixels
Display aspect ratio: 2.39:1
Frame rate mode: Constant
Frame rate: 23.976 (24000/1001) FPS
Color space: YUV
Chroma subsampling: 4:2:0
Bit depth: 8 bits
Scan type: Progressive
Bits/(Pixel*Frame): 0.175
Stream size: 1.17 GiB (80%)
Title: -=DoMiNo=-
Writing library: x264 core 164 r3191 -DoMiNo
Encoding settings: cabac=1 / ref=14 / deblock=1:-3:-2 / analyse=0×3:0×133 / me=umh / subme=10 / psy=1 / psy_rd=1.05:0.05 / mixed_ref=1 / me_range=32 / chroma_me=1 / trellis=2 / 8×8dct=1 / cqm=0 / deadzone=21,11 / fast_pskip=0 / chroma_qp_offset=-3 / threads=13 / lookahead_threads=3 / sliced_threads=0 / nr=0 / decimate=0 / interlaced=0 / bluray_compat=0 / constrained_intra=0 / bframes=12 / b_pyramid=2 / b_adapt=2 / b_bias=0 / direct=3 / weightb=1 / open_gop=0 / weightp=2 / keyint=240 / keyint_min=23 / scenecut=40 / intra_refresh=0 / rc_lookahead=60 / rc=2pass / mbtree=0 / bitrate=1835 / ratetol=1.0 / qcomp=0.65 / qpmin=0 / qpmax=69 / qpstep=4 / cplxblur=20.0 / qblur=0.5 / vbv_maxrate=50000 / vbv_bufsize=62500 / nal_hrd=none / filler=0 / ip_ratio=1.24 / pb_ratio=1.30 / aq=1:0.80
Language: English
Default: Yes
Forced: No
Color range: Limited
Color primaries: BT.709
Transfer characteristics: BT.709
Matrix coefficients: BT.709

Audio
ID: 2
Format: AC-3
Format/Info: Audio Coding 3
Commercial name: Dolby Digital
Codec ID: A_AC3
Duration: 1 h 31 min
Bit rate mode: Constant
Bit rate: 448 kb/s
Channel (s): 6 channels
Channel layout: L R C LFE Ls Rs
Sampling rate: 48.0 kHz
Frame rate: 31.250 FPS (1536 SPF)
Compression mode: Lossy
Stream size: 292 MiB (20%)
Title: DUB — Akimbo Production
Language: Russian
Service kind: Complete Main
Default: Yes
Forced: No
Dialog Normalization: -31 dB
compr: -0.28 dB
cmixlev: -3.0 dB
surmixlev: -3 dB
dmixmod: Lo/Ro
ltrtcmixlev: -3.0 dB
ltrtsurmixlev: -3.0 dB
lorocmixlev: -3.0 dB
lorosurmixlev: -3.0 dB
dialnorm_Average: -31 dB
dialnorm_Minimum: -31 dB
dialnorm_Maximum: -31 dB

Text #1
ID: 3
Format: UTF-8
Codec ID: S_TEXT/UTF8
Codec ID/Info: UTF-8 Plain Text
Duration: 21 min 25 s
Bit rate: 63 b/s
Frame rate: 0.135 FPS
Count of elements: 173
Stream size: 10.0 KiB (0%)
Title: Forced
Language: Russian
Default: No
Forced: No

Text #2
ID: 4
Format: UTF-8
Codec ID: S_TEXT/UTF8
Codec ID/Info: UTF-8 Plain Text
Duration: 1 h 25 min
Bit rate: 51 b/s
Frame rate: 0.218 FPS
Count of elements: 1121
Stream size: 32.6 KiB (0%)
Title: Full
Language: English
Default: No
Forced: No

Menu
00:00:00.000: en: Chapter 01
00:06:25.802: en: Chapter 02
00:14:09.557: en: Chapter 03
00:21:25.951: en: Chapter 04
00:29:33.354: en: Chapter 05
00:40:16.705: en: Chapter 06
00:48:13.473: en: Chapter 07
00:53:45.096: en: Chapter 08
01:02:31.831: en: Chapter 09
01:11:17.773: en: Chapter 10
01:19:53.538: en: Chapter 11
01:27:28.952: en: Chapter 12

Другие фильмы
У данной публикации пока нет комментариев.
Будь первым, оставь своё мнение в комментариях!
Информация
Посетители, находящиеся в группе Гости, не могут оставлять комментарии к данной публикации.
Самый популярный релиз недели
Донаты
Мы в соц. сетях / RSS

Лучшие релизы месяца
Лучшие SD недели
Лучшие 720p недели
Лучшие 1080p недели
Лучшие 4K недели
Вы недавно смотрели
Реклама
Последние комментарии
...

rmzshka

12 июля 2024 11:30

...

Rustik99

12 июля 2024 10:11

...

-=DoMiNo=-

11 июля 2024 23:42

...

rmzshka

11 июля 2024 11:28

...

-=DoMiNo=-

10 июля 2024 15:08

Реклама