+8

Гнев материнский / The Good Mother (2023) BDRip-AVC от DoMiNo & селезень | D

Информация о фильме
Название: Гнев материнский
Оригинальное название: The Good Mother
Год выпуска: 2023
Жанр: триллер, драма, криминал, детектив
Режиссер: Майлз Джорис-Пейрафит
В ролях: Оливия Кук, Хилари Суэнк, Джек Рейнор, Хоппер Пенн, Норм Льюис, Карен Элдридж, Дилон, Роберт Лофтус, Кэти Линн Джонсон, Микайла Шефер

О фильме:
Отчаянная мать и профессиональная журналистка Марисса берётся самостоятельно расследовать дело о жестоком убийстве собственного сына. Пока второй ее сын — полицейский — пытается скрыть детали следствия, девушка погибшего решает вступить в опасное расследование и помочь матери. Вместе они должны докопаться до правды, какой бы страшной она ни была.

Выпущено: США / SSS Entertainment, Artemis, Priority Pictures
Продолжительность: 01:30:25
Перевод: Дублированный | Велес
Субтитры: Английские

Файл
Формат: Matroska
Качество: WEB-DLRip-AVC
Видео: 1152x480 at 23.976 fps, [email protected], ~1931 kbps
Аудио: AC3, 6 ch, ~384 kbps - | Русский | Гнев материнский / The Good Mother (2023) BDRip-AVC от DoMiNo & селезень | D
Формат субтитров: softsub (SRT)

Авторизуйтесь для получения доступа к скачиванию

Нет аккаунта? Регистрация открыта и займёт меньше минуты

Вход Регистрация

General
Unique ID: 255363720947063514004986024599673474328 (0xC01D4381120C6C0587AC4CF8A5258D18)
Complete name: I: The.Good.Mother.2023.DUB.BDRip.x264.seleZen.mkv
Format: Matroska
Format version: Version 4
File size: 1.33 GiB
Duration: 1 h 30 min
Overall bit rate: 2 109 kb/s
Frame rate: 23.976 FPS
Movie name: The.Good.Mother.2023.DUB.BDRip.x264.seleZen
Encoded date: 11.02.2024 17:18:00 UTC
Writing application: mkvmerge v82.0 ('I’m The President') 64-bit
Writing library: libebml v1.4.5 + libmatroska v1.7.1
Cover: Yes
Attachments: cover.jpg / small_cover.jpg

Video
ID: 1
Format: AVC
Format/Info: Advanced Video Codec
Format profile: [email protected]
Format settings: CABAC / 14 Ref Frames
Format settings, CABAC: Yes
Format settings, Reference: 14 frames
Codec ID: V_MPEG4/ISO/AVC
Duration: 1 h 30 min
Bit rate: 1 724 kb/s
Width: 1 024 pixels
Height: 428 pixels
Display aspect ratio: 2.40:1
Frame rate mode: Constant
Frame rate: 23.976 (24000/1001) FPS
Color space: YUV
Chroma subsampling: 4:2:0
Bit depth: 8 bits
Scan type: Progressive
Bits/(Pixel*Frame): 0.164
Stream size: 1.09 GiB (82%)
Title: -=DoMiNo=-
Writing library: x264 core 164 r3173 -DoMiNo
Encoding settings: cabac=1 / ref=14 / deblock=1:-2:-2 / analyse=0×3:0×133 / me=umh / subme=10 / psy=1 / psy_rd=1.01:0.02 / mixed_ref=1 / me_range=32 / chroma_me=1 / trellis=2 / 8×8dct=1 / cqm=0 / deadzone=21,11 / fast_pskip=0 / chroma_qp_offset=-3 / threads=13 / lookahead_threads=3 / sliced_threads=0 / nr=0 / decimate=0 / interlaced=0 / bluray_compat=0 / constrained_intra=0 / bframes=10 / b_pyramid=2 / b_adapt=2 / b_bias=0 / direct=1 / weightb=1 / open_gop=0 / weightp=2 / keyint=250 / keyint_min=23 / scenecut=40 / intra_refresh=0 / rc_lookahead=60 / rc=crf / mbtree=0 / crf=17.8 / qcomp=0.60 / qpmin=0 / qpmax=69 / qpstep=4 / vbv_maxrate=50000 / vbv_bufsize=62500 / crf_max=0.0 / nal_hrd=none / filler=0 / ip_ratio=1.40 / pb_ratio=1.30 / aq=3:0.90
Language: English
Default: Yes
Forced: No

Audio
ID: 2
Format: AC-3
Format/Info: Audio Coding 3
Commercial name: Dolby Digital
Codec ID: A_AC3
Duration: 1 h 30 min
Bit rate mode: Constant
Bit rate: 384 kb/s
Channel (s): 6 channels
Channel layout: L R C LFE Ls Rs
Sampling rate: 48.0 kHz
Frame rate: 31.250 FPS (1536 SPF)
Compression mode: Lossy
Stream size: 248 MiB (18%)
Title: Dub
Language: Russian
Service kind: Complete Main
Default: Yes
Forced: No

Text #1
ID: 3
Format: UTF-8
Codec ID: S_TEXT/UTF8
Codec ID/Info: UTF-8 Plain Text
Duration: 1 h 10 min
Bit rate: 2 b/s
Frame rate: 0.006 FPS
Count of elements: 25
Stream size: 1.37 KiB (0%)
Title: Forced
Language: Russian
Default: No
Forced: No

Text #2
ID: 4
Format: UTF-8
Codec ID: S_TEXT/UTF8
Codec ID/Info: UTF-8 Plain Text
Duration: 1 h 27 min
Bit rate: 35 b/s
Frame rate: 0.151 FPS
Count of elements: 797
Stream size: 23.0 KiB (0%)
Title: Full
Language: English
Default: No
Forced: No

Text #3
ID: 5
Format: UTF-8
Codec ID: S_TEXT/UTF8
Codec ID/Info: UTF-8 Plain Text
Duration: 1 h 29 min
Bit rate: 41 b/s
Frame rate: 0.194 FPS
Count of elements: 1041
Stream size: 26.9 KiB (0%)
Title: SDH
Language: English
Default: No
Forced: No

Menu
00:00:00.000: en: Chapter 01
00:08:49.612: en: Chapter 02
00:19:04.560: en: Chapter 03
00:30:04.720: en: Chapter 04
00:40:40.396: en: Chapter 05
00:50:26.190: en: Chapter 06
01:03:46.614: en: Chapter 07
01:14:21.290: en: Chapter 08
01:30:22.334: en: Chapter 09

Другие фильмы
У данной публикации пока нет комментариев.
Будь первым, оставь своё мнение в комментариях!
Информация
Посетители, находящиеся в группе Гости, не могут оставлять комментарии к данной публикации.
Самый популярный релиз недели
Донаты
Мы в соц. сетях / RSS

Лучшие релизы месяца
Лучшие SD недели
Лучшие 720p недели
Лучшие 1080p недели
Лучшие 4K недели
Вы недавно смотрели
Реклама
Последние комментарии
...

korelov

23 февраля 2024 14:35

...

Desol

21 февраля 2024 00:28

...

diabloq

20 февраля 2024 14:17

...

slightlymad

17 февраля 2024 21:01

...

takezi

15 февраля 2024 22:10

Реклама