+26

Монарх: Наследие монстров / Monarch: Legacy of Monsters [S01] (2023) WEB-DLRip-AVC от DoMiNo & селезень | P

Информация о фильме
Название: Монарх: Наследие монстров
Оригинальное название: Monarch: Legacy of Monsters
Год выхода: 2023
Жанр: Фантастика, боевик, приключения
Режиссер: Майрзи Алмас, Джулиан Холмс, Хироми Камата
В ролях: Кристофер Хейердал, Курт Расселл, Мари Ямамото, Джесс Салгейру, Кёко Саито, Доминик Типпер, Сёта Цудзи, Джош Коллинз, Чарли Хьюсон, Дзюнъити Тадзири и другие.

О фильме:
Пережив нападение Годзиллы на Сан-Франциско, Кейт в очередной раз потрясена шокирующей тайной. Она отправляется в путешествие по миру, чтобы узнать правду о своей семье и таинственной организации, известной как «Монарх».

Страна: США, Япония
Студия: Legendary Television, Safehouse Pictures, Toho Company
Продолжительность: 10x ~ 00:45:00
Перевод: Профессиональный (многоголосый, закадровый) | NewComers
Субтитры: Русские (Full), Английские

Файл
Формат: Matroska
Качество: WEB-DLRip-AVC
Видео: 1024x428 at 23.976 fps, [email protected], ~1761 kbps
Аудио: AC3, 6 ch, ~448 kbps - | Русский | Монарх: Наследие монстров / Monarch: Legacy of Monsters [S01] (2023) WEB-DLRip-AVC от DoMiNo & селезень | P
Формат субтитров: softsub (SRT)
► Без Рекламы!

Авторизуйтесь для получения доступа к скачиванию

Нет аккаунта? Регистрация открыта и займёт меньше минуты

Вход Регистрация

x264 [info]: frame I:600 Avg QP:15.72 size: 50904
x264 [info]: frame P:14748 Avg QP:17.87 size: 20062
x264 [info]: frame B:51278 Avg QP:19.75 size: 5461

General
Unique ID : 119910702488832677299312710520501928621 (0x5A35F614F9F87962C9D0576702F782AD)
Complete name : E:vrmMonarch.Legacy.of.Monsters.S01.2023.NC.WEB-DLRip.x264.seleZenMonarch.Legacy.of.Monsters.S01E01.WEB-DLRip.x264.seleZen.mkv
Format : Matroska
Format version : Version 4
File size : 788 MiB
Duration : 49 min 48 s
Overall bit rate : 2 212 kb/s
Frame rate : 23.976 FPS
Movie name : Monarch.Legacy.of.Monsters.S01E01.WEB-DLRip.x264.seleZen
Encoded date : 2023-12-04 14:29:28 UTC
Writing application : mkvmerge v81.0 ('Milliontown') 64-bit
Writing library : libebml v1.4.4 + libmatroska v1.7.1
Cover : Yes
Attachments : cover.jpg / small_cover.jpg

Video
ID : 1
Format : AVC
Format/Info : Advanced Video Codec
Format profile : [email protected]
Format settings : CABAC / 10 Ref Frames
Format settings, CABAC : Yes
Format settings, Reference : 10 frames
Codec ID : V_MPEG4/ISO/AVC
Duration : 49 min 48 s
Bit rate : 1 761 kb/s
Width : 1 024 pixels
Height : 428 pixels
Display aspect ratio : 2.40:1
Frame rate mode : Constant
Frame rate : 23.976 (24000/1001) FPS
Color space : YUV
Chroma subsampling : 4:2:0
Bit depth : 8 bits
Scan type : Progressive
Bits/(Pixel*Frame) : 0.168
Stream size : 627 MiB (80%)
Title : -=DoMiNo=-
Writing library : x264 core 164 r3172 -DoMiNo
Encoding settings : cabac=1 / ref=10 / deblock=1:-1:-1 / analyse=0x3:0x133 / me=umh / subme=10 / psy=1 / psy_rd=1.05:0.05 / mixed_ref=1 / me_range=32 / chroma_me=1 / trellis=2 / 8x8dct=1 / cqm=0 / deadzone=21,11 / fast_pskip=0 / chroma_qp_offset=-3 / threads=17 / lookahead_threads=3 / sliced_threads=0 / nr=0 / decimate=1 / interlaced=0 / bluray_compat=0 / constrained_intra=0 / bframes=10 / b_pyramid=2 / b_adapt=2 / b_bias=0 / direct=3 / weightb=1 / open_gop=0 / weightp=2 / keyint=250 / keyint_min=23 / scenecut=40 / intra_refresh=0 / rc_lookahead=60 / rc=crf / mbtree=0 / crf=18.5 / qcomp=0.60 / qpmin=0 / qpmax=69 / qpstep=4 / vbv_maxrate=50000 / vbv_bufsize=62500 / crf_max=0.0 / nal_hrd=none / filler=0 / ip_ratio=1.40 / pb_ratio=1.30 / aq=3:0.90
Language : English
Default : Yes
Forced : No

Audio
ID : 2
Format : AC-3
Format/Info : Audio Coding 3
Commercial name : Dolby Digital
Codec ID : A_AC3
Duration : 49 min 48 s
Bit rate mode : Constant
Bit rate : 448 kb/s
Channel(s) : 6 channels
Channel layout : L R C LFE Ls Rs
Sampling rate : 48.0 kHz
Frame rate : 31.250 FPS (1536 SPF)
Compression mode : Lossy
Stream size : 160 MiB (20%)
Title : NewComers
Language : Russian
Service kind : Complete Main
Default : Yes
Forced : No

Text #1
ID : 3
Format : UTF-8
Codec ID : S_TEXT/UTF8
Codec ID/Info : UTF-8 Plain Text
Duration : 49 min 13 s
Bit rate : 67 b/s
Frame rate : 0.183 FPS
Count of elements : 542
Stream size : 24.2 KiB (0%)
Language : Russian
Default : No
Forced : No

Text #2
ID : 4
Format : UTF-8
Codec ID : S_TEXT/UTF8
Codec ID/Info : UTF-8 Plain Text
Duration : 48 min 15 s
Bit rate : 59 b/s
Frame rate : 0.223 FPS
Count of elements : 646
Stream size : 21.1 KiB (0%)
Title : SDH
Language : English
Default : No
Forced : No

Menu
00:00:00.000 : en:Studio Logo
00:00:08.963 : en:Main
00:48:26.916 : en:Credits

Другие фильмы
У данной публикации пока нет комментариев.
Будь первым, оставь своё мнение в комментариях!
Информация
Посетители, находящиеся в группе Гости, не могут оставлять комментарии к данной публикации.
Самый популярный релиз недели
Донаты
Мы в соц. сетях / RSS

Лучшие релизы месяца
Лучшие SD недели
Лучшие 720p недели
Лучшие 1080p недели
Лучшие 4K недели
Вы недавно смотрели
Реклама
Последние комментарии
...

korelov

23 февраля 2024 14:35

...

Desol

21 февраля 2024 00:28

...

diabloq

20 февраля 2024 14:17

...

slightlymad

17 февраля 2024 21:01

...

takezi

15 февраля 2024 22:10

Реклама