+18

Маяк 23 / Beacon 23 [01x01-08 из 08] (2023) WEB-DLRip-AVC от DoMiNo & селезень | Кравец-Рекордз

Информация о фильме
Название: Маяк 23
Оригинальное название: Beacon 23
Год выхода: 2023
Жанр: Фантастика, триллер, драма, детектив
Режиссер: Левин Уэбб, Дэниэл Персивал, Оз Скотт, Грег Биман
В ролях: Стефан Джеймс, Лина Хиди, Уэйд Богерт О’Брайэн, Стивен Рут, Джесс Салгейру, Эллен Вонг, Бо Мартин, Эрик Ланж, Дэниел Малик, Каролина Бартчак, Марк Менчака, Барбара Херши, Рузбех Фэйрд, А.Дж. Симмонс, Сидни Озеров-Мейер, Матильда Лего, Дилан Тейлор, Кортни Ламанна, Бенжамин Дж. Кэйн мл., Дэвид Томпа

О фильме:
XXIII век. Сеть маяков по всей галактике помогает космическим шаттлам безопасно путешествовать. Бывший военный Халан и сотрудница правительства Астер оказываются заперты на маяке в самом дальнем уголке космоса и пытаются сквозь страхи и подозрения решить, кто они — друзья или враги.

Страна: США
Студия: Boat Rocker Studios, Platform One Media, Spectrum Originals
Продолжительность: 8 x ~ 00:50:00
Перевод: Профессиональный (многоголосый, закадровый) | Кравец-Рекордз - по заказу Амедиа
Субтитры: Русские (Full), Английские

Файл
Формат: Matroska
Качество: WEB-DLRip-AVC
Видео: 1024x512 at 23.976 fps, [email protected], ~1820 kbps
Аудио: AC3, 6 ch, ~384 kbps - | Русский | Маяк 23 / Beacon 23 [01x01-08 из 08] (2023) WEB-DLRip-AVC от DoMiNo & селезень | Кравец-Рекордз
Формат субтитров: softsub (SRT)

Авторизуйтесь для получения доступа к скачиванию

Нет аккаунта? Регистрация открыта и займёт меньше минуты

Вход Регистрация

General
Unique ID : 243745633276162649119071765851487889660 (0xB75FB38E8EF5DDAE48FF9359DA0C68FC)
Complete name : E:Beacon.23.S01.E01.2023.WEB-DLRip.x264.seleZen.mkv
Format : Matroska
Format version : Version 4
File size : 772 MiB
Duration : 48 min 53 s
Overall bit rate : 2 207 kb/s
Frame rate : 23.976 FPS
Movie name : Beacon.23.S01.E01.2023.WEB-DLRip.x264.seleZen
Encoded date : 2023-11-20 18:19:41 UTC
Writing application : mkvmerge v80.0 ('Roundabout') 64-bit
Writing library : libebml v1.4.4 + libmatroska v1.7.1
Cover : Yes
Attachments : cover.jpg / small_cover.jpg

Video
ID : 1
Format : AVC
Format/Info : Advanced Video Codec
Format profile : [email protected]
Format settings : CABAC / 10 Ref Frames
Format settings, CABAC : Yes
Format settings, Reference : 10 frames
Codec ID : V_MPEG4/ISO/AVC
Duration : 48 min 53 s
Bit rate : 1 820 kb/s
Width : 1 024 pixels
Height : 512 pixels
Display aspect ratio : 2.000
Frame rate mode : Constant
Frame rate : 23.976 (24000/1001) FPS
Color space : YUV
Chroma subsampling : 4:2:0
Bit depth : 8 bits
Scan type : Progressive
Bits/(Pixel*Frame) : 0.145
Stream size : 636 MiB (82%)
Title : -=DoMiNo=-
Writing library : x264 core 164 r3164 _DoMiNo
Encoding settings : cabac=1 / ref=10 / deblock=1:-1:-1 / analyse=0x3:0x133 / me=umh / subme=10 / psy=1 / psy_rd=1.01:0.02 / mixed_ref=1 / me_range=32 / chroma_me=1 / trellis=2 / 8x8dct=1 / cqm=0 / deadzone=21,11 / fast_pskip=0 / chroma_qp_offset=-3 / threads=17 / lookahead_threads=4 / sliced_threads=0 / nr=0 / decimate=0 / interlaced=0 / bluray_compat=0 / constrained_intra=0 / bframes=12 / b_pyramid=2 / b_adapt=2 / b_bias=0 / direct=3 / weightb=1 / open_gop=0 / weightp=2 / keyint=250 / keyint_min=23 / scenecut=40 / intra_refresh=0 / rc_lookahead=60 / rc=crf / mbtree=0 / crf=18.0 / qcomp=0.60 / qpmin=0 / qpmax=69 / qpstep=4 / vbv_maxrate=50000 / vbv_bufsize=62500 / crf_max=0.0 / nal_hrd=none / filler=0 / ip_ratio=1.40 / pb_ratio=1.30 / aq=3:0.90
Language : English
Default : Yes
Forced : No

Audio
ID : 2
Format : AC-3
Format/Info : Audio Coding 3
Commercial name : Dolby Digital
Codec ID : A_AC3
Duration : 48 min 53 s
Bit rate mode : Constant
Bit rate : 384 kb/s
Channel(s) : 6 channels
Channel layout : L R C LFE Ls Rs
Sampling rate : 48.0 kHz
Frame rate : 31.250 FPS (1536 SPF)
Compression mode : Lossy
Stream size : 134 MiB (17%)
Title : Кравец-Рекордз
Language : Russian
Service kind : Complete Main
Default : Yes
Forced : No

Text #1
ID : 3
Format : UTF-8
Codec ID : S_TEXT/UTF8
Codec ID/Info : UTF-8 Plain Text
Duration : 47 min 38 s
Bit rate : 80 b/s
Frame rate : 0.158 FPS
Count of elements : 452
Stream size : 28.2 KiB (0%)
Language : Russian
Default : No
Forced : No

Text #2
ID : 4
Format : UTF-8
Codec ID : S_TEXT/UTF8
Codec ID/Info : UTF-8 Plain Text
Duration : 47 min 9 s
Bit rate : 51 b/s
Frame rate : 0.206 FPS
Count of elements : 583
Stream size : 17.6 KiB (0%)
Language : English
Default : No
Forced : No

Text #3
ID : 5
Format : UTF-8
Codec ID : S_TEXT/UTF8
Codec ID/Info : UTF-8 Plain Text
Duration : 47 min 52 s
Bit rate : 56 b/s
Frame rate : 0.242 FPS
Count of elements : 696
Stream size : 19.9 KiB (0%)
Title : SDH
Language : English
Default : No
Forced : No

Menu
00:00:00.000 : en:Studio Logo
00:00:14.968 : en:Scene 3
00:01:11.968 : en:Scene 4
00:05:13.968 : en:Opening Credits
00:05:45.968 : en:Scene 6
00:13:17.968 : en:Scene 7
00:14:43.968 : en:Scene 8
00:15:44.968 : en:Scene 9
00:16:12.968 : en:Scene 10
00:17:12.968 : en:Scene 11
00:17:41.968 : en:Scene 12
00:18:03.968 : en:Scene 13
00:18:39.968 : en:Scene 14
00:20:03.968 : en:Scene 15
00:20:49.968 : en:Scene 16
00:22:19.968 : en:Scene 17
00:23:08.968 : en:Scene 18
00:23:27.968 : en:Scene 19
00:26:07.968 : en:Scene 20
00:26:27.968 : en:Scene 21
00:28:03.968 : en:Scene 22
00:29:38.968 : en:Scene 23
00:30:41.968 : en:Scene 24
00:31:23.968 : en:Scene 25
00:32:16.968 : en:Scene 26
00:33:08.968 : en:Scene 27
00:34:50.968 : en:Scene 28
00:36:16.968 : en:Scene 29
00:37:58.968 : en:Scene 30
00:38:37.968 : en:Scene 31
00:40:37.968 : en:Scene 32
00:41:34.968 : en:Scene 33
00:42:41.968 : en:Scene 34
00:44:56.968 : en:Scene 35
00:45:36.968 : en:Scene 36
00:46:27.968 : en:Scene 37
00:47:12.968 : en:Scene 38
00:48:13.968 : en:End Credits

Другие фильмы
У данной публикации пока нет комментариев.
Будь первым, оставь своё мнение в комментариях!
Информация
Посетители, находящиеся в группе Гости, не могут оставлять комментарии к данной публикации.
Самый популярный релиз недели
Донаты
Мы в соц. сетях / RSS

Лучшие релизы месяца
Лучшие SD недели
Лучшие 720p недели
Лучшие 1080p недели
Лучшие 4K недели
Вы недавно смотрели
Реклама
Последние комментарии
...

rmzshka

12 июля 2024 11:30

...

Rustik99

12 июля 2024 10:11

...

-=DoMiNo=-

11 июля 2024 23:42

...

rmzshka

11 июля 2024 11:28

...

-=DoMiNo=-

10 июля 2024 15:08

Реклама