+9

Преступник Джонни Блэк / Outlaw Johnny Black (2023) WEB-DLRip-AVC от DoMiNo & селезень | P

Информация о фильме
Название: Преступник Джонни Блэк
Оригинальное название: Outlaw Johnny Black
Год выпуска: 2023
Жанр: боевик, комедия, вестерн
Режиссер: Майкл Джей Уайт
Продюсер: Donovan de Boer, Байрон Миннс, Майкл Джей Уайт
Актеры: Майкл Джей Уайт, Байрон Миннс, Аника Нони Роуз, Эрика Эш, Ким Уитли, Кевин Чэпмен, Глинн Тёрмен, Бэрри Боствик, Крис Браунинг, Эме Иквуакор

Описание:
Джонни Блэк клянется застрелить Бретта Клейтона, чтобы отомстить за убийство своего отца, но в итоге оказывается в розыске. Выдавая себя за проповедника, Джонни скрывается в маленьком шахтерском городке, захваченном земельным бароном.

Производство: США / Jaigantic Studios
Продолжительность: 02:16:43
Перевод: Профессиональный (многоголосый, закадровый) | TVShows
Субтитры: Английские (Forced -хардсаб на речь индейцев, SDH)

Файл
Формат: Matroska
Качество: WEB-DLRip-AVC
Видео: 1024x436 at 23.976 fps, [email protected], ~1912 kbps
Аудио: AC3, 6 ch, ~448 kbps - | Русский | Преступник Джонни Блэк / Outlaw Johnny Black (2023) WEB-DLRip-AVC от DoMiNo & селезень | P
Формат субтитров: softsub (SRT)

Авторизуйтесь для получения доступа к скачиванию

Нет аккаунта? Регистрация открыта и займёт меньше минуты

Вход Регистрация

General
Unique ID: 107077619050871335110376214586270867833 (0×508E6637E4E37F2E9184E7CB5D56E179)
Complete name: O: Outlaw.Johnny.Black.2023.AMZN.WEB-DLRip.x264.seleZen.mkv
Format: Matroska
Format version: Version 4
File size: 2.26 GiB
Duration: 2 h 16 min
Overall bit rate: 2 362 kb/s
Frame rate: 23.976 FPS
Movie name: Outlaw.Johnny.Black.2023.AMZN.WEB-DLRip.x264.seleZen
Encoded date: 20.11.2023 10:46:21 UTC
Writing application: mkvmerge v80.0 ('Roundabout') 64-bit
Writing library: libebml v1.4.4 + libmatroska v1.7.1
Cover: Yes
Attachments: cover.jpg / small_cover.jpg

Video
ID: 1
Format: AVC
Format/Info: Advanced Video Codec
Format profile: [email protected]
Format settings: CABAC / 10 Ref Frames
Format settings, CABAC: Yes
Format settings, Reference: 10 frames
Codec ID: V_MPEG4/ISO/AVC
Duration: 2 h 16 min
Bit rate: 1 912 kb/s
Width: 1 024 pixels
Height: 436 pixels
Display aspect ratio: 2.35:1
Frame rate mode: Constant
Frame rate: 23.976 (24000/1001) FPS
Color space: YUV
Chroma subsampling: 4:2:0
Bit depth: 8 bits
Scan type: Progressive
Bits/(Pixel*Frame): 0.179
Stream size: 1.83 GiB (81%)
Title: -=DoMiNo=-
Writing library: x264 core 164 r3164 _DoMiNo
Encoding settings: cabac=1 / ref=10 / deblock=1:-1:-1 / analyse=0×3:0×133 / me=umh / subme=10 / psy=1 / psy_rd=1.02:0.03 / mixed_ref=1 / me_range=32 / chroma_me=1 / trellis=2 / 8×8dct=1 / cqm=0 / deadzone=21,11 / fast_pskip=0 / chroma_qp_offset=-3 / threads=17 / lookahead_threads=3 / sliced_threads=0 / nr=0 / decimate=0 / interlaced=0 / bluray_compat=0 / constrained_intra=0 / bframes=16 / b_pyramid=2 / b_adapt=2 / b_bias=0 / direct=3 / weightb=1 / open_gop=0 / weightp=2 / keyint=250 / keyint_min=23 / scenecut=40 / intra_refresh=0 / rc_lookahead=60 / rc=crf / mbtree=0 / crf=19.3 / qcomp=0.60 / qpmin=0 / qpmax=69 / qpstep=4 / vbv_maxrate=50000 / vbv_bufsize=62500 / crf_max=0.0 / nal_hrd=none / filler=0 / ip_ratio=1.30 / pb_ratio=1.30 / aq=3:0.90
Language: English
Default: Yes
Forced: No

Audio
ID: 2
Format: AC-3
Format/Info: Audio Coding 3
Commercial name: Dolby Digital
Codec ID: A_AC3
Duration: 2 h 16 min
Bit rate mode: Constant
Bit rate: 448 kb/s
Channel (s): 6 channels
Channel layout: L R C LFE Ls Rs
Sampling rate: 48.0 kHz
Frame rate: 31.250 FPS (1536 SPF)
Compression mode: Lossy
Stream size: 438 MiB (19%)
Title: MVO | TVShows
Language: Russian
Service kind: Complete Main
Default: Yes
Forced: No

Text
ID: 3
Format: UTF-8
Codec ID: S_TEXT/UTF8
Codec ID/Info: UTF-8 Plain Text
Duration: 2 h 16 min
Bit rate: 67 b/s
Frame rate: 0.269 FPS
Count of elements: 2203
Stream size: 67.6 KiB (0%)
Title: English [CC]
Language: English
Default: No
Forced: No

Другие фильмы
У данной публикации пока нет комментариев.
Будь первым, оставь своё мнение в комментариях!
Информация
Посетители, находящиеся в группе Гости, не могут оставлять комментарии к данной публикации.
Самый популярный релиз недели
Донаты
Мы в соц. сетях / RSS

Лучшие релизы месяца
Лучшие SD недели
Лучшие 720p недели
Лучшие 1080p недели
Лучшие 4K недели
Вы недавно смотрели
Реклама
Последние комментарии
...

Bonzo

14 июня 2024 14:52

...

rmzshka

13 июня 2024 17:48

...

rmzshka

13 июня 2024 12:24

...

LisNick

13 июня 2024 08:45

...

SkySpirit

8 июня 2024 19:54

Реклама