+6

Тыквоголовый / Pumpkinhead (1988) UHD BDRemux 2160p от селезень | 4K | HDR | Dolby Vision Profile 8 | P

Информация о фильме
Название: Тыквоголовый
Оригинальное название: Pumpkinhead
Год выхода: 1988
Жанр: ужасы, фэнтези
Режиссер: Стэн Уинстон
В ролях: Лэнс Хенриксен, Джефф Ист, Джон Д'Акино, Кимберли Росс, Джоэль Хоффман, Синтия Бейн, Керри Ремсен, Флоренс Шауффлер, Брайан Бремер, Джордж «Бак» Флауэр

О фильме: Группа городских подростков отправляется погонять на мотоциклах в горы. Один из разгорячившихся лихачей сбивает насмерть маленького мальчика. Безутешный отец погибшего ребенка жаждет мщения и обращается за помощью к местной ведьме. Старая колдунья рассказывает ему, как с помощью его собственной крови и крови убитого сына можно разбудить Демона мести. Так из потустороннего мира появляется ужасное чудовище – Тыквоголовый.

Страна: США
Студия: De Laurentiis Entertainment Group (DEG), Lion Films
Продолжительность: 01:26:39
Перевод: Профессиональный многоголосый

Качество: BDRemux 2160p
Видео: 3840x2160 at 24.000 fps, MPEG-H HEVC HDR Video, 76500 kbps avg
Аудио #01: 48 kHz, AC3, 2.0, 192 Kbps | Профессиональный многоголосый | RUS |Тыквоголовый / Pumpkinhead (1988) UHD BDRemux 2160p от селезень | 4K | HDR | Dolby Vision Profile 8 | P
Аудио #02: 48 kHz, DTS-HD MA, 5.1, 4322 Kbps | Оригинал | ENG |
Субтитры: Английские

Тыквоголовый / Pumpkinhead (1988) UHD BDRemux 2160p от селезень | 4K | HDR | Dolby Vision Profile 8 | P

Авторизуйтесь для получения доступа к скачиванию

Нет аккаунта? Регистрация открыта и займёт меньше минуты

Вход Регистрация

General
Unique ID : 126762352292064048849170573071948753370 (0x5F5D8A7FA20C3B4B6B7A66D2E264A9DA)
Complete name : H:\VideoH\Pumpkinhead.1988.BDREMUX.2160p.HDR.DVP8.seleZen.mkv
Format : Matroska
Format version : Version 4
File size : 49.1 GiB
Duration : 1 h 26 min
Overall bit rate mode : Variable
Overall bit rate : 81.1 Mb/s
Frame rate : 24.000 FPS
Movie name : Pumpkinhead 1988 from seleZen
Encoded date : 2023-11-19 14:26:15 UTC
Writing application : mkvmerge v79.0 ('Funeral Pyres') 64-bit
Writing library : libebml v1.4.4 + libmatroska v1.7.1

Video
ID : 1
ID in the original source m : 4117 (0x1015)
Format : HEVC
Format/Info : High Efficiency Video Coding
Format profile : Main [email protected]@High
HDR format : Dolby Vision, Version 1.0, dvhe.08.06, BL+RPU, Blu-ray compatible / SMPTE ST 2086, HDR10 compatible
Codec ID : V_MPEGH/ISO/HEVC
Duration : 1 h 26 min
Bit rate : 76.5 Mb/s
Width : 3 840 pixels
Height : 2 160 pixels
Display aspect ratio : 16:9
Frame rate mode : Constant
Frame rate : 24.000 FPS
Color space : YUV
Chroma subsampling : 4:2:0 (Type 2)
Bit depth : 10 bits
Bits/(Pixel*Frame) : 0.384
Time code of first frame : 00:00:00:00
Stream size : 46.3 GiB (94%)
Language : English
Default : No
Forced : No
Color range : Limited
Color primaries : BT.2020
Transfer characteristics : PQ
Matrix coefficients : BT.2020 non-constant
Mastering display color pri : Display P3
Mastering display luminance : min: 0.0001 cd/m2, max: 1000 cd/m2
Maximum Content Light Level : 1286 cd/m2
Maximum Frame-Average Light : 262 cd/m2
Original source medium : Blu-ray

Audio #1
ID : 2
Format : AC-3
Format/Info : Audio Coding 3
Commercial name : Dolby Digital
Codec ID : A_AC3
Duration : 1 h 26 min
Bit rate mode : Constant
Bit rate : 192 kb/s
Channel(s) : 2 channels
Channel layout : L R
Sampling rate : 48.0 kHz
Frame rate : 31.250 FPS (1536 SPF)
Compression mode : Lossy
Stream size : 119 MiB (0%)
Title : MVO
Language : Russian
Service kind : Complete Main
Default : Yes
Forced : No

Audio #2
ID : 3
Format : DTS XLL
Format/Info : Digital Theater Systems
Commercial name : DTS-HD Master Audio
Codec ID : A_DTS
Duration : 1 h 26 min
Bit rate mode : Variable
Bit rate : 4 322 kb/s
Channel(s) : 6 channels
Channel layout : C L R Ls Rs LFE
Sampling rate : 48.0 kHz
Frame rate : 93.750 FPS (512 SPF)
Bit depth : 24 bits
Compression mode : Lossless
Stream size : 2.62 GiB (5%)
Title : Original
Language : English
Default : No
Forced : No

Text
ID : 4
Format : UTF-8
Codec ID : S_TEXT/UTF8
Codec ID/Info : UTF-8 Plain Text
Duration : 1 h 17 min
Bit rate : 36 b/s
Frame rate : 0.147 FPS
Count of elements : 686
Stream size : 20.7 KiB (0%)
Language : English
Default : No
Forced : No

Menu
00:00:00.000 : en:Глава 01
00:08:31.208 : en:Глава 02
00:15:10.917 : en:Глава 03
00:22:35.500 : en:Глава 04
00:29:29.375 : en:Глава 05
00:38:14.042 : en:Глава 06
00:46:17.750 : en:Глава 07
00:54:16.750 : en:Глава 08
01:02:21.375 : en:Глава 09
01:09:18.542 : en:Глава 10
01:16:05.667 : en:Глава 11
01:21:07.917 : en:Глава 12

Другие фильмы
У данной публикации пока нет комментариев.
Будь первым, оставь своё мнение в комментариях!
Информация
Посетители, находящиеся в группе Гости, не могут оставлять комментарии к данной публикации.
Самый популярный релиз недели
Донаты
Мы в соц. сетях / RSS

Лучшие релизы месяца
Лучшие SD недели
Лучшие 720p недели
Лучшие 1080p недели
Лучшие 4K недели
Вы недавно смотрели
Реклама
Последние комментарии
...

rmzshka

15 мая 2024 13:43

...

Andrey_Vladimirovich

13 мая 2024 18:12

...

Robot

13 мая 2024 16:53

...

rmzshka

13 мая 2024 16:21

...

supermehanik

13 мая 2024 02:03

Реклама