+22

Убийство на краю света / A Murder at the End of the World [S01] (2023) WEB-DLRip-AVC от DoMiNo & селезень | P

Информация о фильме
Название: Убийство на краю света
Оригинальное название: A Murder at the End of the World
Год выхода: 2023
Жанр: Драма, триллер, детектив
Режиссер: Зал Батманглидж, Брит Марлинг
В ролях: Эмма Коррин, Брит Марлинг, Харрис Дикинсон, Алиси Брага, Джоан Чен, Рауль Эспарза, Жермен Фаулер, Райан Дж. Хаддад, Пега Феридони, Джавед Кхан и другие.

О фильме:
«Убийство на краю света» происходит в двух временных линиях. В настоящем юная Дарби Харт (Коррин), получившая прозвище «Шерлок поколения Z» после того, как нашла серийного убийцу и написала об этом книгу, приглашена миллиардером Энди Ронсоном (Оуэн) в отдаленный эксклюзивный отель в Исландии. Среди богатых и знаменитых людей Дарби чувствует себя не в своей тарелке, пока не увидит другого гостя: Ее бывший парень, Билл (Дикинсон), ныне модный художник. Во флэшбэках мы узнаем, что Билл помогал Дарби найти серийного убийцу, который и сделал её известной, но после их отношения испортились и они расстались. Конечно, не все убийства остались в прошлом. В убежище Энди начинают гибнуть люди и Дарби вынуждена докапываться до истины, попутно раскрывая заговоры, секреты и зло невообразимо богатых людей…

Страна: США
Студия: FX Productions
Продолжительность: ~ 01:10:00 серия
Перевод: Профессиональный (многоголосый, закадровый) | NewComers 18 +
Субтитры: Русские (Full), Английские

Файл
Формат: Matroska
Качество: WEB-DLRip-AVC [исх.WEB-DL-HEVC 2160p | 4K | SDR]
Видео: 1024x554 at 23.976 fps, [email protected], ~1456 kbps
Аудио: AC3, 6 ch, ~384 kbps - | Русский | Убийство на краю света / A Murder at the End of the World [S01] (2023) WEB-DLRip-AVC от DoMiNo & селезень | P
Формат субтитров: softsub (SRT)
► Без Рекламы!

Авторизуйтесь для получения доступа к скачиванию

Нет аккаунта? Регистрация открыта и займёт меньше минуты

Вход Регистрация

General
Unique ID: 17507569670896510126667456487586091678 (0xD2BD5D4240EFC0085FBEE627391529E)
Complete name: E: A.Murder.at.the.End.of.the.World.S01E01.WEB-DLRip.x264.seleZen.mkv
Format: Matroska
Format version: Version 4
File size: 927 MiB
Duration: 1 h 10 min
Overall bit rate: 1 842 kb/s
Frame rate: 23.976 FPS
Movie name: A.Murder.at.the.End.of.the.World.S01E01.WEB-DLRip.x264.seleZen
Encoded date: 16.11.2023 17:17:21 UTC
Writing application: mkvmerge v80.0 ('Roundabout') 64-bit
Writing library: libebml v1.4.4 + libmatroska v1.7.1
Cover: Yes
Attachments: cover.jpg / small_cover.jpg

Video
ID: 1
Format: AVC
Format/Info: Advanced Video Codec
Format profile: [email protected]
Format settings: CABAC / 10 Ref Frames
Format settings, CABAC: Yes
Format settings, Reference: 10 frames
Codec ID: V_MPEG4/ISO/AVC
Duration: 1 h 10 min
Bit rate: 1 456 kb/s
Width: 1 024 pixels
Height: 554 pixels
Display aspect ratio: 1.85:1
Frame rate mode: Constant
Frame rate: 23.976 (24000/1001) FPS
Color space: YUV
Chroma subsampling: 4:2:0
Bit depth: 8 bits
Scan type: Progressive
Bits/(Pixel*Frame): 0.107
Stream size: 732 MiB (79%)
Title: -=DoMiNo=-
Writing library: x264 core 164 r3164 c196240
Encoding settings: cabac=1 / ref=10 / deblock=1:0:0 / analyse=0×3:0×133 / me=umh / subme=10 / psy=1 / psy_rd=1.00:0.00 / mixed_ref=1 / me_range=32 / chroma_me=1 / trellis=2 / 8×8dct=1 / cqm=0 / deadzone=21,11 / fast_pskip=0 / chroma_qp_offset=-2 / threads=17 / lookahead_threads=4 / sliced_threads=0 / nr=0 / decimate=1 / interlaced=0 / bluray_compat=0 / constrained_intra=0 / bframes=14 / b_pyramid=2 / b_adapt=2 / b_bias=0 / direct=3 / weightb=1 / open_gop=0 / weightp=2 / keyint=250 / keyint_min=23 / scenecut=40 / intra_refresh=0 / rc_lookahead=60 / rc=crf / mbtree=0 / crf=18.0 / qcomp=0.60 / qpmin=0 / qpmax=69 / qpstep=4 / vbv_maxrate=50000 / vbv_bufsize=62500 / crf_max=0.0 / nal_hrd=none / filler=0 / ip_ratio=1.40 / pb_ratio=1.30 / aq=3:0.90
Language: English
Default: Yes
Forced: No
Color range: Limited
Matrix coefficients: BT.709

Audio
ID: 2
Format: AC-3
Format/Info: Audio Coding 3
Commercial name: Dolby Digital
Codec ID: A_AC3
Duration: 1 h 10 min
Bit rate mode: Constant
Bit rate: 384 kb/s
Channel (s): 6 channels
Channel layout: L R C LFE Ls Rs
Sampling rate: 48.0 kHz
Frame rate: 31.250 FPS (1536 SPF)
Compression mode: Lossy
Stream size: 193 MiB (21%)
Title: NewComers
Language: Russian
Service kind: Complete Main
Default: Yes
Forced: No

Text #1
ID: 3
Format: UTF-8
Codec ID: S_TEXT/UTF8
Codec ID/Info: UTF-8 Plain Text
Duration: 1 h 8 min
Bit rate: 63 b/s
Frame rate: 0.194 FPS
Count of elements: 794
Stream size: 31.9 KiB (0%)
Language: Russian
Default: No
Forced: No

Text #2
ID: 4
Format: UTF-8
Codec ID: S_TEXT/UTF8
Codec ID/Info: UTF-8 Plain Text
Duration: 1 h 9 min
Bit rate: 54 b/s
Frame rate: 0.250 FPS
Count of elements: 1042
Stream size: 27.9 KiB (0%)
Title: English
Language: English
Default: No
Forced: No

Другие фильмы
У данной публикации пока нет комментариев.
Будь первым, оставь своё мнение в комментариях!
Информация
Посетители, находящиеся в группе Гости, не могут оставлять комментарии к данной публикации.
Самый популярный релиз недели
Донаты
Мы в соц. сетях / RSS

Лучшие релизы месяца
Лучшие SD недели
Лучшие 720p недели
Лучшие 1080p недели
Лучшие 4K недели
Вы недавно смотрели
Реклама
Последние комментарии
...

korelov

23 февраля 2024 14:35

...

Desol

21 февраля 2024 00:28

...

diabloq

20 февраля 2024 14:17

...

slightlymad

17 февраля 2024 21:01

...

takezi

15 февраля 2024 22:10

Реклама