+2

Воины будущего / Боевая мутантка / Bian zhong ren: you ling zhan ji / Mutant Ghost Wargirl (2022) WEB-DL 1080p от селезень | D | Локализованная версия

Информация о фильме
Название: Воины будущего
Оригинальное название: Bian zhong ren: you ling zhan ji
Год выхода: 2022
Жанр: фантастика, боевик
Режиссер: Лю Биньцзе
В ролях: Мия Муци, Ли Минсюань, Лю Бэйгэ, Цуй Чжэньчжэнь, Му Фэнбинь, Го Цзыхэн, Ху Цзинъюнь, Цзэн Юньчжэнь

О фильме: Количество мутантов, созданных для боев в битве завтрашнего дня, увеличивается со неимоверной скоростью. Международный альянс безопасности начинает борьбу с преступностью среди мутантов. Спецагент У Цинцин отправляется на задание в клинику, где создаются чудовища.

Страна: Китай
Продолжительность: 01:11:57
Перевод: Дублированный | iTunes

Качество: WEB-DL 1080p
Видео: MPEG-4 AVC, 1920x800, 5112 Kbit/s, 24.000 fps
Аудио: 48 kHz, AC3, 5.1, 640 Kbps | iTunes | RUS |Воины будущего / Боевая мутантка / Bian zhong ren: you ling zhan ji / Mutant Ghost Wargirl (2022) WEB-DL 1080p от селезень | D | Локализованная версия
Субтитры: Русские (Forced (хардсаб), full)

Воины будущего / Боевая мутантка / Bian zhong ren: you ling zhan ji / Mutant Ghost Wargirl (2022) WEB-DL 1080p от селезень | D | Локализованная версия

Авторизуйтесь для получения доступа к скачиванию

Нет аккаунта? Регистрация открыта и займёт меньше минуты

Вход Регистрация

General
Unique ID : 95352433226959266434495865155864983529 (0x47BC35ECA5A9D5D971DC78BFB09B77E9)
Complete name : H:\VideoH\Mutant.Ghost.Wargirl.2022.WEB-DL.1080p.seleZen.mkv
Format : Matroska
Format version : Version 4
File size : 2.89 GiB
Duration : 1 h 11 min
Overall bit rate : 5 754 kb/s
Frame rate : 24.000 FPS
Movie name : Bian zhong ren: you ling zhan ji a.k.a Mutant Ghost Wargirl 2022 from seleZen
Encoded date : 2023-11-15 22:06:14 UTC
Writing application : mkvmerge v79.0 ('Funeral Pyres') 64-bit
Writing library : libebml v1.4.4 + libmatroska v1.7.1

Video
ID : 1
Format : AVC
Format/Info : Advanced Video Codec
Format profile : High@L4
Format settings : CABAC / 4 Ref Frames
Format settings, CABAC : Yes
Format settings, Reference : 4 frames
Codec ID : V_MPEG4/ISO/AVC
Duration : 1 h 11 min
Bit rate : 5 112 kb/s
Width : 1 920 pixels
Height : 800 pixels
Display aspect ratio : 2.40:1
Frame rate mode : Constant
Frame rate : 24.000 FPS
Color space : YUV
Chroma subsampling : 4:2:0
Bit depth : 8 bits
Scan type : Progressive
Bits/(Pixel*Frame) : 0.139
Stream size : 2.57 GiB (89%)
Language : English
Default : Yes
Forced : No

Audio
ID : 2
Format : AC-3
Format/Info : Audio Coding 3
Commercial name : Dolby Digital
Codec ID : A_AC3
Duration : 1 h 11 min
Bit rate mode : Constant
Bit rate : 640 kb/s
Channel(s) : 6 channels
Channel layout : L R C LFE Ls Rs
Sampling rate : 48.0 kHz
Frame rate : 31.250 FPS (1536 SPF)
Compression mode : Lossy
Stream size : 329 MiB (11%)
Language : Russian
Service kind : Complete Main
Default : Yes
Forced : No

Text
ID : 3
Format : UTF-8
Codec ID : S_TEXT/UTF8
Codec ID/Info : UTF-8 Plain Text
Duration : 1 h 8 min
Bit rate : 60 b/s
Frame rate : 0.139 FPS
Count of elements : 575
Stream size : 30.5 KiB (0%)
Title : Full
Language : Russian
Default : No
Forced : No

Другие фильмы
У данной публикации пока нет комментариев.
Будь первым, оставь своё мнение в комментариях!
Информация
Посетители, находящиеся в группе Гости, не могут оставлять комментарии к данной публикации.
Самый популярный релиз недели
Донаты
Мы в соц. сетях / RSS

Лучшие релизы месяца
Лучшие SD недели
Лучшие 720p недели
Лучшие 1080p недели
Лучшие 4K недели
Вы недавно смотрели
Реклама
Последние комментарии
...

rmzshka

12 июля 2024 11:30

...

Rustik99

12 июля 2024 10:11

...

-=DoMiNo=-

11 июля 2024 23:42

...

rmzshka

11 июля 2024 11:28

...

-=DoMiNo=-

10 июля 2024 15:08

Реклама