+12

Создатель / The Creator (2023) BDRip 1080p от селезень | D

Информация о фильме
Название: Создатель
Оригинальное название: The Creator
Год выхода: 2023
Жанр: фантастика, боевик, триллер, драма, приключения
Режиссер: Гарет Эдвардс
В ролях: Джон Дэвид Вашингтон, Мэделин Юна Войлс, Джемма Чан, Эллисон Дженни, Кэн Ватанабэ, Стерджил Симпсон, Амер Чадха-Пател, Марк Менчака, Робби Танн, Ральф Айнесон

О фильме: На фоне войны будущего между человечеством и силами искусственного интеллекта Джошуа, закаленный в боях и бывший оперативный агент, переживает исчезновение жены, и теперь ему предстоит найти и уничтожить Создателя - неуловимого архитектора, создавшего искусственный интеллект и оружие, способное положить конец всему людскому роду.

Страна: США
Студия: 20th Century Studios, Regency Television
Продолжительность: 02:13:29
Перевод: Дублированный | MovieDalen

Качество: BDRip 1080p
Видео: MPEG-4 AVC, 1920x696, 12500 Кbit/s, 23.976 fps
Аудио #01: 48 kHz, AC3, 5.1, 384 Kbps | Дублированный | MovieDalen | RUS |Создатель / The Creator (2023) BDRip 1080p от селезень | D
Аудио #02: 48 kHz, AC3, 5.1, 640 Kbps | Оригинал | ENG |
Субтитры: Русские (Forced, full), английские

Создатель / The Creator (2023) BDRip 1080p от селезень | D

Авторизуйтесь для получения доступа к скачиванию

Нет аккаунта? Регистрация открыта и займёт меньше минуты

Вход Регистрация

General
Unique ID : 60861395211121388638212417764104761494 (0x2DC97A751BAF4B9B9AB17BCC642A7096)
Complete name : H:\VideoH\The.Creator.2023.BDRip.1080p.seleZen.mkv
Format : Matroska
Format version : Version 4
File size : 12.6 GiB
Duration : 2 h 13 min
Overall bit rate : 13.6 Mb/s
Frame rate : 23.976 FPS
Movie name : The Creator (2023) from seleZen
Encoded date : 2023-12-06 22:48:25 UTC
Writing application : mkvmerge v80.0 ('Roundabout') 64-bit
Writing library : libebml v1.4.4 + libmatroska v1.7.1

Video
ID : 1
Format : AVC
Format/Info : Advanced Video Codec
Format profile : [email protected]
Format settings : CABAC / 6 Ref Frames
Format settings, CABAC : Yes
Format settings, Reference : 6 frames
Codec ID : V_MPEG4/ISO/AVC
Duration : 2 h 13 min
Bit rate : 12.5 Mb/s
Width : 1 920 pixels
Height : 696 pixels
Display aspect ratio : 2.759
Frame rate mode : Constant
Frame rate : 23.976 (24000/1001) FPS
Color space : YUV
Chroma subsampling : 4:2:0
Bit depth : 8 bits
Scan type : Progressive
Bits/(Pixel*Frame) : 0.391
Stream size : 11.7 GiB (92%)
Writing library : x264 core 164 r3164 seleZen
Encoding settings : cabac=1 / ref=6 / deblock=1:-2:-2 / analyse=0x3:0x133 / me=umh / subme=11 / psy=1 / psy_rd=1.03:0.02 / mixed_ref=1 / me_range=32 / chroma_me=1 / trellis=2 / 8x8dct=1 / cqm=0 / deadzone=21,11 / fast_pskip=0 / chroma_qp_offset=-3 / threads=22 / lookahead_threads=5 / sliced_threads=0 / nr=0 / decimate=0 / interlaced=0 / bluray_compat=0 / constrained_intra=0 / bframes=10 / b_pyramid=2 / b_adapt=2 / b_bias=0 / direct=1 / weightb=1 / open_gop=0 / weightp=2 / keyint=240 / keyint_min=23 / scenecut=40 / intra_refresh=0 / rc_lookahead=60 / rc=crf / mbtree=0 / crf=18.6 / qcomp=0.60 / qpmin=0 / qpmax=51 / qpstep=4 / vbv_maxrate=50000 / vbv_bufsize=62500 / crf_max=0.0 / nal_hrd=none / filler=0 / ip_ratio=1.40 / pb_ratio=1.30 / aq=3:0.80
Language : English
Default : Yes
Forced : No

Audio #1
ID : 2
Format : AC-3
Format/Info : Audio Coding 3
Commercial name : Dolby Digital
Codec ID : A_AC3
Duration : 2 h 13 min
Bit rate mode : Constant
Bit rate : 384 kb/s
Channel(s) : 6 channels
Channel layout : L R C LFE Ls Rs
Sampling rate : 48.0 kHz
Frame rate : 31.250 FPS (1536 SPF)
Compression mode : Lossy
Stream size : 367 MiB (3%)
Title : Dub_MovieDalen
Language : Russian
Service kind : Complete Main
Default : Yes
Forced : No

Audio #2
ID : 3
Format : AC-3
Format/Info : Audio Coding 3
Commercial name : Dolby Digital
Codec ID : A_AC3
Duration : 2 h 13 min
Bit rate mode : Constant
Bit rate : 640 kb/s
Channel(s) : 6 channels
Channel layout : L R C LFE Ls Rs
Sampling rate : 48.0 kHz
Frame rate : 31.250 FPS (1536 SPF)
Compression mode : Lossy
Stream size : 611 MiB (5%)
Title : Original
Language : English
Service kind : Complete Main
Default : No
Forced : No

Text #1
ID : 4
Format : UTF-8
Codec ID : S_TEXT/UTF8
Codec ID/Info : UTF-8 Plain Text
Duration : 1 h 58 min
Bit rate : 3 b/s
Frame rate : 0.011 FPS
Count of elements : 79
Stream size : 2.98 KiB (0%)
Title : Forced
Language : Russian
Default : Yes
Forced : No

Text #2
ID : 5
Format : UTF-8
Codec ID : S_TEXT/UTF8
Codec ID/Info : UTF-8 Plain Text
Duration : 2 h 2 min
Bit rate : 63 b/s
Frame rate : 0.193 FPS
Count of elements : 1416
Stream size : 57.3 KiB (0%)
Title : Full
Language : Russian
Default : No
Forced : No

Text #3
ID : 6
Format : UTF-8
Codec ID : S_TEXT/UTF8
Codec ID/Info : UTF-8 Plain Text
Duration : 1 h 12 min
Bit rate : 1 b/s
Frame rate : 0.011 FPS
Count of elements : 46
Stream size : 933 Bytes (0%)
Title : Forced
Language : English
Default : No
Forced : No

Text #4
ID : 7
Format : UTF-8
Codec ID : S_TEXT/UTF8
Codec ID/Info : UTF-8 Plain Text
Duration : 2 h 2 min
Bit rate : 42 b/s
Frame rate : 0.187 FPS
Count of elements : 1373
Stream size : 37.6 KiB (0%)
Title : Full
Language : English
Default : No
Forced : No

Text #5
ID : 8
Format : UTF-8
Codec ID : S_TEXT/UTF8
Codec ID/Info : UTF-8 Plain Text
Duration : 2 h 12 min
Bit rate : 62 b/s
Frame rate : 0.276 FPS
Count of elements : 2184
Stream size : 60.8 KiB (0%)
Title : SDH
Language : English
Default : No
Forced : No

Menu
00:00:00.000 : en:Глава 01
00:03:36.007 : en:Глава 02
00:09:58.431 : en:Глава 03
00:14:56.187 : en:Глава 04
00:18:42.496 : en:Глава 05
00:24:19.500 : en:Глава 06
00:30:29.453 : en:Глава 07
00:33:50.946 : en:Глава 08
00:37:40.717 : en:Глава 09
00:42:28.755 : en:Глава 10
00:46:21.570 : en:Глава 11
00:50:16.013 : en:Глава 12
00:54:24.428 : en:Глава 13
00:59:12.883 : en:Глава 14
01:04:17.312 : en:Глава 15
01:09:51.646 : en:Глава 16
01:14:58.494 : en:Глава 17
01:20:16.061 : en:Глава 18
01:28:40.023 : en:Глава 19
01:32:38.845 : en:Глава 20
01:37:53.326 : en:Глава 21
01:41:37.508 : en:Глава 22
01:46:41.145 : en:Глава 23
01:50:07.184 : en:Глава 24
01:53:17.332 : en:Глава 25
02:00:55.623 : en:Глава 26
02:03:31.362 : en:Глава 27

Другие фильмы
Комментарии:

...
Hargs 7 декабря 2023 10:31
0

О, нет еб*нутой зернистости.

Информация
Посетители, находящиеся в группе Гости, не могут оставлять комментарии к данной публикации.
Самый популярный релиз недели
Донаты
Мы в соц. сетях / RSS

Лучшие релизы месяца
Лучшие SD недели
Лучшие 720p недели
Лучшие 1080p недели
Лучшие 4K недели
Вы недавно смотрели
Реклама
Последние комментарии
...

rmzshka

12 июля 2024 11:30

...

Rustik99

12 июля 2024 10:11

...

-=DoMiNo=-

11 июля 2024 23:42

...

rmzshka

11 июля 2024 11:28

...

-=DoMiNo=-

10 июля 2024 15:08

Реклама