+6

Легенда Зорро / The Legend of Zorro (2005) UHD BDRemux 2160p от селезень | 4K | HDR | Dolby Vision Profile 8 | D

Информация о фильме
Название: Легенда Зорро
Оригинальное название: The Legend of Zorro
Год выхода: 2005
Жанр: боевик, триллер, мелодрама, приключения, вестерн
Режиссер: Мартин Кэмпбелл
В ролях: Антонио Бандерас, Кэтрин Зета-Джонс, Адриан Алонсо, Руфус Сьюэлл, Ник Чинланд, Хулио Оскар Мечосо, Майкл Эмерсон, Шулер Хенсли, Лео Бёрместер, Тони Амендола

О фильме: У Алехандро де ла Вега растёт сын Хоакин. Алехандро обещает жене Элене расстаться с маской Зорро и вечными приключениями и зажить спокойной жизнью. Но сдержать слово не удаётся, поскольку зреет новый заговор, бороться с которым может лишь всесильный Зорро.

Страна: США
Студия: Amblin Entertainment, Columbia Pictures Corporation, Spyglass Entertainment, Tornado Productions Inc.
Продолжительность: 02:10:26
Перевод: Дублированный

Качество: BDRemux 2160p
Видео: 3840x2160 at 23.976 fps, MPEG-H HEVC HDR ~ 55000 kbps avg
Аудио #01: 48 kHz, AC3, 5.1, 640 Kbps | Дублированный | RUS |Легенда Зорро / The Legend of Zorro (2005) UHD BDRemux 2160p от селезень | 4K | HDR | Dolby Vision Profile 8 | D
Аудио #02: 48 kHz, TrueHD, 7.1, 4441 Kbps | Оригинал | ENG |
Аудио #03: 48 kHz, AC3, 5.1, 640 Kbps | Оригинал | ENG |
Субтитры: Русские (Full), Английские

Легенда Зорро / The Legend of Zorro (2005) UHD BDRemux 2160p от селезень | 4K | HDR | Dolby Vision Profile 8 | D

Авторизуйтесь для получения доступа к скачиванию

Нет аккаунта? Регистрация открыта и займёт меньше минуты

Вход Регистрация

General
Unique ID : 21132073940135222660555419645742961286 (0xFE5E3AFA44CED32FFD4BE3441585286)
Complete name : G:\VideoG\The.Legend.of.Zorro.2005.BDREMUX.2160p.HDR.DVP8.seleZen.mkv
Format : Matroska
Format version : Version 4
File size : 55.4 GiB
Duration : 2 h 10 min
Overall bit rate mode : Variable
Overall bit rate : 60.8 Mb/s
Frame rate : 23.976 FPS
Movie name : The Legend of Zorro 2005 from seleZen
Encoded date : 2023-10-02 22:32:00 UTC
Writing application : mkvmerge v79.0 ('Funeral Pyres') 64-bit
Writing library : libebml v1.4.4 + libmatroska v1.7.1

Video
ID : 1
ID in the original source medium : 4117 (0x1015)
Format : HEVC
Format/Info : High Efficiency Video Coding
Format profile : Main [email protected]@High
HDR format : Dolby Vision, Version 1.0, dvhe.08.06, BL+RPU, Blu-ray compatible / SMPTE ST 2086, HDR10 compatible
Codec ID : V_MPEGH/ISO/HEVC
Duration : 2 h 10 min
Bit rate : 55.0 Mb/s
Width : 3 840 pixels
Height : 2 160 pixels
Display aspect ratio : 16:9
Frame rate mode : Constant
Frame rate : 23.976 (24000/1001) FPS
Color space : YUV
Chroma subsampling : 4:2:0 (Type 2)
Bit depth : 10 bits
Bits/(Pixel*Frame) : 0.277
Stream size : 50.1 GiB (90%)
Language : English
Default : No
Forced : No
Color range : Limited
Color primaries : BT.2020
Transfer characteristics : PQ
Matrix coefficients : BT.2020 non-constant
Mastering display color primaries : BT.2020
Mastering display luminance : min: 0.0001 cd/m2, max: 1000 cd/m2
Maximum Content Light Level : 895 cd/m2
Maximum Frame-Average Light Level : 351 cd/m2
Original source medium : Blu-ray

Audio #1
ID : 2
Format : AC-3
Format/Info : Audio Coding 3
Commercial name : Dolby Digital
Codec ID : A_AC3
Duration : 2 h 10 min
Bit rate mode : Constant
Bit rate : 640 kb/s
Channel(s) : 6 channels
Channel layout : L R C LFE Ls Rs
Sampling rate : 48.0 kHz
Frame rate : 31.250 FPS (1536 SPF)
Compression mode : Lossy
Stream size : 597 MiB (1%)
Title : Dub
Language : Russian
Service kind : Complete Main
Default : Yes
Forced : No

Audio #2
ID : 3
Format : MLP FBA 16-ch
Format/Info : Meridian Lossless Packing FBA with 16-channel presentation
Commercial name : Dolby TrueHD with Dolby Atmos
Codec ID : A_TRUEHD
Duration : 2 h 10 min
Bit rate mode : Variable
Bit rate : 4 441 kb/s
Maximum bit rate : 7 857 kb/s
Channel(s) : 8 channels
Channel layout : L R C LFE Ls Rs Lb Rb
Sampling rate : 48.0 kHz
Frame rate : 1 200.000 FPS (40 SPF)
Compression mode : Lossless
Stream size : 4.05 GiB (7%)
Title : Original
Language : English
Default : No
Forced : No
Number of dynamic objects : 11
Bed channel count : 1 channel
Bed channel configuration : LFE

Audio #3
ID : 4
Format : AC-3
Format/Info : Audio Coding 3
Commercial name : Dolby Digital
Codec ID : A_AC3
Duration : 2 h 10 min
Bit rate mode : Constant
Bit rate : 640 kb/s
Channel(s) : 6 channels
Channel layout : L R C LFE Ls Rs
Sampling rate : 48.0 kHz
Frame rate : 31.250 FPS (1536 SPF)
Compression mode : Lossy
Stream size : 597 MiB (1%)
Language : English
Service kind : Complete Main
Default : No
Forced : No

Text #1
ID : 5
Format : UTF-8
Codec ID : S_TEXT/UTF8
Codec ID/Info : UTF-8 Plain Text
Duration : 2 h 1 min
Bit rate : 61 b/s
Frame rate : 0.129 FPS
Count of elements : 941
Stream size : 54.8 KiB (0%)
Language : Russian
Default : No
Forced : No

Text #2
ID : 6
Format : UTF-8
Codec ID : S_TEXT/UTF8
Codec ID/Info : UTF-8 Plain Text
Duration : 2 h 0 min
Bit rate : 36 b/s
Frame rate : 0.128 FPS
Count of elements : 923
Stream size : 32.0 KiB (0%)
Language : English
Default : No
Forced : No

Menu
00:00:00.000 : en:Глава 01
00:10:00.600 : en:Глава 02
00:20:01.200 : en:Глава 03
00:30:02.217 : en:Глава 04
00:40:02.400 : en:Глава 05
00:50:03.000 : en:Глава 06
01:00:03.600 : en:Глава 07
01:10:04.200 : en:Глава 08
01:20:04.800 : en:Глава 09
01:30:05.400 : en:Глава 10
01:40:06.000 : en:Глава 11
01:50:06.600 : en:Глава 12
02:00:07.200 : en:Глава 13
02:03:52.925 : en:Глава 14

Другие фильмы
У данной публикации пока нет комментариев.
Будь первым, оставь своё мнение в комментариях!
Информация
Посетители, находящиеся в группе Гости, не могут оставлять комментарии к данной публикации.
Самый популярный релиз недели
Донаты
Мы в соц. сетях / RSS

Лучшие релизы месяца
Лучшие SD недели
Лучшие 720p недели
Лучшие 1080p недели
Лучшие 4K недели
Вы недавно смотрели
Реклама
Последние комментарии
...

-=DoMiNo=-

9 апреля 2024 17:43

...

supermehanik

9 апреля 2024 16:22

...

selezinka

5 апреля 2024 16:20

...

Kirk1991

30 марта 2024 15:04

...

Robot

22 марта 2024 09:33

Реклама