+7

Ночной поезд / Night Train (2023) WEB-DL 1080p от селезень | D

Информация о фильме
Название: Ночной поезд
Оригинальное название: Night Train
Год выхода: 2023
Жанр: боевик, триллер
Режиссер: Шэйн Стэнли
В ролях: Даниэль Чакран, Регги Остин, Брент Бэйли, Диора Бэрд, Вэл Барри, Абрахам Бенруби, Andrew Cahn, Lizette De La Rosa, Шон Диллинхэм, Nayeli Esparza

О фильме: В центре сюжета — история противостояния матери-одиночки, которая едва сводит концы с концами и вынуждена покупать медикаменты для больного сына на черном рынке, и агентом ФБР, которая ведет на неё охоту и пытается поймать её с поличным.

Страна: США
Студия: Rebelle Rouser, Rolling Thunder Films
Продолжительность: 01:35:29
Перевод: Дублированный | Видео продакшн

Качество: WEB-DL 1080p
Видео: MPEG-4 AVC, 1920x1036, 6549 Кbit/s, 23.976 fps
Аудио #01: 48 kHz, AC3, 5.1, 384 Kbps | Дублированный | Видео продакшн | RUS |Ночной поезд / Night Train (2023) WEB-DL 1080p от селезень | D
Аудио #02: 48 kHz, AC3, 5.1, 384 Kbps | Оригинал | ENG |
Субтитры: Русские (Full), английские

Ночной поезд / Night Train (2023) WEB-DL 1080p от селезень | D

Авторизуйтесь для получения доступа к скачиванию

Нет аккаунта? Регистрация открыта и займёт меньше минуты

Вход Регистрация

General
Unique ID : 256489455154151101447487428422706370127 (0xC0F6127C5C5B0789F3E51A92C893964F)
Complete name : G:\VideoG\Night.Train.2023.WEB-DL.1080p.seleZen.mkv
Format : Matroska
Format version : Version 4
File size : 4.88 GiB
Duration : 1 h 35 min
Overall bit rate : 7 319 kb/s
Frame rate : 23.976 FPS
Movie name : Night.Train.2023 from seleZen
Encoded date : 2023-09-24 21:46:06 UTC
Writing application : mkvmerge v63.0.0 ('Everything') 64-bit
Writing library : libebml v1.4.2 + libmatroska v1.6.4

Video
ID : 1
Format : AVC
Format/Info : Advanced Video Codec
Format profile : High@L4
Format settings : CABAC / 4 Ref Frames
Format settings, CABAC : Yes
Format settings, Reference frames : 4 frames
Codec ID : V_MPEG4/ISO/AVC
Duration : 1 h 35 min
Bit rate : 6 549 kb/s
Width : 1 920 pixels
Height : 1 036 pixels
Display aspect ratio : 1.85:1
Frame rate mode : Constant
Frame rate : 23.976 (23976/1000) FPS
Original frame rate : 23.976 (24000/1001) FPS
Color space : YUV
Chroma subsampling : 4:2:0
Bit depth : 8 bits
Scan type : Progressive
Bits/(Pixel*Frame) : 0.137
Stream size : 4.37 GiB (89%)
Language : English
Default : Yes
Forced : No
Color range : Limited
Color primaries : BT.709
Transfer characteristics : BT.709
Matrix coefficients : BT.709

Audio #1
ID : 2
Format : AC-3
Format/Info : Audio Coding 3
Commercial name : Dolby Digital
Codec ID : A_AC3
Duration : 1 h 35 min
Bit rate mode : Constant
Bit rate : 384 kb/s
Channel(s) : 6 channels
Channel layout : L R C LFE Ls Rs
Sampling rate : 48.0 kHz
Frame rate : 31.250 FPS (1536 SPF)
Compression mode : Lossy
Stream size : 262 MiB (5%)
Title : Dub
Language : Russian
Service kind : Complete Main
Default : Yes
Forced : No

Audio #2
ID : 3
Format : AC-3
Format/Info : Audio Coding 3
Commercial name : Dolby Digital
Codec ID : A_AC3
Duration : 1 h 35 min
Bit rate mode : Constant
Bit rate : 384 kb/s
Channel(s) : 6 channels
Channel layout : L R C LFE Ls Rs
Sampling rate : 48.0 kHz
Frame rate : 31.250 FPS (1536 SPF)
Compression mode : Lossy
Stream size : 262 MiB (5%)
Title : Original
Language : English
Service kind : Complete Main
Default : No
Forced : No

Text #1
ID : 4
Format : UTF-8
Codec ID : S_TEXT/UTF8
Codec ID/Info : UTF-8 Plain Text
Duration : 1 h 32 min
Bit rate : 92 b/s
Frame rate : 0.208 FPS
Count of elements : 1157
Stream size : 63.0 KiB (0%)
Language : Russian
Default : No
Forced : No

Text #2
ID : 5
Format : UTF-8
Codec ID : S_TEXT/UTF8
Codec ID/Info : UTF-8 Plain Text
Duration : 1 h 34 min
Bit rate : 72 b/s
Frame rate : 0.317 FPS
Count of elements : 1803
Stream size : 50.5 KiB (0%)
Title : English CC
Language : English (US)
Default : No
Forced : No

Menu
00:00:00.000 : en:Chapter 01
00:13:06.786 : en:Chapter 02
00:24:32.013 : en:Chapter 03
00:37:10.188 : en:Chapter 04
00:49:07.864 : en:Chapter 05
01:01:32.984 : en:Chapter 06
01:15:08.174 : en:Chapter 07
01:32:00.979 : en:Chapter 08

Другие фильмы
У данной публикации пока нет комментариев.
Будь первым, оставь своё мнение в комментариях!
Информация
Посетители, находящиеся в группе Гости, не могут оставлять комментарии к данной публикации.
Самый популярный релиз недели
Донаты
Мы в соц. сетях / RSS

Лучшие релизы месяца
Лучшие SD недели
Лучшие 720p недели
Лучшие 1080p недели
Лучшие 4K недели
Вы недавно смотрели
Реклама
Последние комментарии
...

Bonzo

14 июня 2024 14:52

...

rmzshka

13 июня 2024 17:48

...

rmzshka

13 июня 2024 12:24

...

LisNick

13 июня 2024 08:45

...

SkySpirit

8 июня 2024 19:54

Реклама