+9

Челюсти 2 / Jaws 2 (1978) UHD BDRemux 2160p от селезень | 4K | HDR | D

Информация о фильме
Название: Челюсти 2
Оригинальное название: Jaws 2
Год выхода: 1978
Жанр: ужасы, триллер, приключения
Режиссер: Жанно Шварц
В ролях: Рой Шайдер, Лоррэйн Гари, Мюррэй Хэмилтон, Джозеф Масколо, Джефри Крамер, Коллин Уилкокс Пэкстон, Энн Дьюзенберри, Марк Грюнер, Бэрри Коу, Сьюзэн Френч

О фильме: Акула-убийца, несколько лет назад терроризировавшая побережье курортного городка Эмити, вернулась! Гигантский хищник снова начал охоту. Рискуя жизнью, шеф полиции морского парка Мартин Броди вступает в борьбу с чудовищем, чей голод теперь во много раз сильнее!

Страна: США
Студия: Universal Pictures
Продолжительность: 01:56:10
Перевод: Дублированный | Арк-ТВ

Качество: BDRemux 2160p
Видео: 3840x2160 at 23.976 fps, MPEG-H HEVC HDR Video, 58500 kbps avg
Аудио #01: 48 kHz, AC3, 2.0, 192 Kbps | Дублированный | Арк-ТВ | RUS |Челюсти 2 / Jaws 2 (1978) UHD BDRemux 2160p от селезень | 4K | HDR | D
Аудио #02: 48 kHz, FLAC, 2.0, 680 Kbps | Оригинал | ENG |
Субтитры: Русские (Full), Английские

Челюсти 2 / Jaws 2 (1978) UHD BDRemux 2160p от селезень | 4K | HDR | D

Авторизуйтесь для получения доступа к скачиванию

Нет аккаунта? Регистрация открыта и займёт меньше минуты

Вход Регистрация

General
Unique ID : 159297388447118316802278139036100510545 (0x77D78FA0CBB8EC5BBEB065804FB8C351)
Complete name : G:\VideoG\Jaws 2.1978.BDREMUX.2160p.HDR.seleZen.mkv
Format : Matroska
Format version : Version 4
File size : 48.2 GiB
Duration : 1 h 56 min
Overall bit rate mode : Variable
Overall bit rate : 59.3 Mb/s
Frame rate : 23.976 FPS
Movie name : Jaws 2 1978 from seleZen
Encoded date : 2023-09-23 04:37:36 UTC
Writing application : mkvmerge v63.0.0 ('Everything') 64-bit
Writing library : libebml v1.4.2 + libmatroska v1.6.4

Video
ID : 1
ID in the original source medium : 4113 (0x1011)
Format : HEVC
Format/Info : High Efficiency Video Coding
Format profile : Main [email protected]@High
HDR format : SMPTE ST 2086, HDR10 compatible
Codec ID : V_MPEGH/ISO/HEVC
Duration : 1 h 56 min
Bit rate : 58.5 Mb/s
Width : 3 840 pixels
Height : 2 160 pixels
Display aspect ratio : 16:9
Frame rate mode : Constant
Frame rate : 23.976 (24000/1001) FPS
Color space : YUV
Chroma subsampling : 4:2:0 (Type 2)
Bit depth : 10 bits
Bits/(Pixel*Frame) : 0.294
Stream size : 47.5 GiB (99%)
Language : English
Default : Yes
Forced : No
Color range : Limited
Color primaries : BT.2020
Transfer characteristics : PQ
Matrix coefficients : BT.2020 non-constant
Mastering display color primaries : Display P3
Mastering display luminance : min: 0.0050 cd/m2, max: 1000 cd/m2
Maximum Content Light Level : 1000 cd/m2
Maximum Frame-Average Light Level : 98 cd/m2
Original source medium : Blu-ray

Audio #1
ID : 2
Format : AC-3
Format/Info : Audio Coding 3
Commercial name : Dolby Digital
Codec ID : A_AC3
Duration : 1 h 56 min
Bit rate mode : Constant
Bit rate : 192 kb/s
Channel(s) : 2 channels
Channel layout : L R
Sampling rate : 48.0 kHz
Frame rate : 31.250 FPS (1536 SPF)
Compression mode : Lossy
Stream size : 160 MiB (0%)
Title : Dub [Арк-ТВ]
Language : Russian
Service kind : Complete Main
Default : Yes
Forced : No

Audio #2
ID : 3
Format : FLAC
Format/Info : Free Lossless Audio Codec
Codec ID : A_FLAC
Duration : 1 h 56 min
Bit rate mode : Variable
Bit rate : 680 kb/s
Channel(s) : 2 channels
Channel layout : L R
Sampling rate : 48.0 kHz
Frame rate : 11.719 FPS (4096 SPF)
Bit depth : 24 bits
Compression mode : Lossless
Stream size : 565 MiB (1%)
Title : Original
Writing library : libFLAC 1.2.1 (2007-09-17)
Language : English
Default : No
Forced : No
MD5 of the unencoded content : 0F4FA0657DD21A16FF51DDC3DEDCF526

Text #1
ID : 4
Format : UTF-8
Codec ID : S_TEXT/UTF8
Codec ID/Info : UTF-8 Plain Text
Duration : 1 h 53 min
Bit rate : 67 b/s
Frame rate : 0.129 FPS
Count of elements : 877
Stream size : 56.0 KiB (0%)
Title : Full
Language : Russian
Default : No
Forced : No

Text #2
ID : 5
Format : UTF-8
Codec ID : S_TEXT/UTF8
Codec ID/Info : UTF-8 Plain Text
Duration : 1 h 50 min
Bit rate : 46 b/s
Frame rate : 0.195 FPS
Count of elements : 1294
Stream size : 37.6 KiB (0%)
Title : SDH
Language : Russian
Default : No
Forced : No

Menu
00:00:00.000 : en:Chapter 01
00:02:05.125 : en:Chapter 02
00:04:50.039 : en:Chapter 03
00:12:29.457 : en:Chapter 04
00:18:15.969 : en:Chapter 05
00:27:26.811 : en:Chapter 06
00:34:28.024 : en:Chapter 07
00:41:00.791 : en:Chapter 08
00:56:59.833 : en:Chapter 09
01:01:30.478 : en:Chapter 10
01:11:55.185 : en:Chapter 11
01:16:27.833 : en:Chapter 12
01:22:33.156 : en:Chapter 13
01:29:46.464 : en:Chapter 14
01:41:16.862 : en:Chapter 15
01:43:14.354 : en:Chapter 16
01:48:01.475 : en:Chapter 17
01:53:29.677 : en:Chapter 18

Другие фильмы
У данной публикации пока нет комментариев.
Будь первым, оставь своё мнение в комментариях!
Информация
Посетители, находящиеся в группе Гости, не могут оставлять комментарии к данной публикации.
Самый популярный релиз недели
Донаты
Мы в соц. сетях / RSS

Лучшие релизы месяца
Лучшие SD недели
Лучшие 720p недели
Лучшие 1080p недели
Лучшие 4K недели
Вы недавно смотрели
Реклама
Последние комментарии
...

Bonzo

14 июня 2024 14:52

...

rmzshka

13 июня 2024 17:48

...

rmzshka

13 июня 2024 12:24

...

LisNick

13 июня 2024 08:45

...

SkySpirit

8 июня 2024 19:54

Реклама