+7

Игра в лифте / Elevator Game (2023) WEB-DL 1080p от селезень | D

Информация о фильме
Название: Игра в лифте
Оригинальное название: Elevator Game
Год выхода: 2023
Жанр: Ужасы
Режиссер: Ребека МакКендри
В ролях: Меган Бест, Адам Хертиг, Джино Анания, Назарий Демкович, Мэдисон Макайзек, Алек Карлос, Брэдли Савацки, Верити Маркс, Лиам Стюарт-Каниган, Даррен Уолл

О фильме: Райан разыскивает свою пропавшую сестру. Девушка исчезла после того, как провела популярный у подростков пугающий ритуал «Игра в лифте», с помощью которого можно попасть в иное, мрачное измерение. Чтобы найти сестру, Райан решает последовать за ней и тоже сыграть в эту игру, но вскоре понимает, что в интернете не зря предупреждали об опасности этого ритуала.

Страна: США
Студия: Buffalo Gal Pictures, Fearworks, Head Gear Films
Продолжительность: 01:34:25
Перевод: Дублированный | Мосфильм-Мастер

Качество: WEB-DL 1080p
Видео: MPEG-4 AVC, 1920x804, 5106 Kbit/s, 24.000 fps
Аудио: 48 kHz, AC3, 5.1, 384 Kbps | Дублированный | Мосфильм-Мастер | RUS |Игра в лифте / Elevator Game (2023) WEB-DL 1080p от селезень | D
Субтитры: Отсутствуют

Игра в лифте / Elevator Game (2023) WEB-DL 1080p от селезень | D

Авторизуйтесь для получения доступа к скачиванию

Нет аккаунта? Регистрация открыта и займёт меньше минуты

Вход Регистрация

General
Unique ID : 326206337519965302918222464187873644095 (0xF5690E2B46FC9806CADFFAAB6BCC4E3F)
Complete name : G:\VideoG\Elevator.Game.2023.WEB-DL.1080p.seleZen.mkv
Format : Matroska
Format version : Version 4
File size : 3.62 GiB
Duration : 1 h 34 min
Overall bit rate : 5 492 kb/s
Frame rate : 24.000 FPS
Movie name : Elevator Game 2023 from seleZen
Encoded date : 2023-09-19 21:36:19 UTC
Writing application : mkvmerge v63.0.0 ('Everything') 64-bit
Writing library : libebml v1.4.2 + libmatroska v1.6.4

Video
ID : 1
Format : AVC
Format/Info : Advanced Video Codec
Format profile : High@L4
Format settings : CABAC / 4 Ref Frames
Format settings, CABAC : Yes
Format settings, Reference frames : 4 frames
Codec ID : V_MPEG4/ISO/AVC
Duration : 1 h 34 min
Bit rate : 5 106 kb/s
Width : 1 920 pixels
Height : 804 pixels
Display aspect ratio : 2.40:1
Frame rate mode : Constant
Frame rate : 24.000 FPS
Color space : YUV
Chroma subsampling : 4:2:0
Bit depth : 8 bits
Scan type : Progressive
Bits/(Pixel*Frame) : 0.138
Stream size : 3.37 GiB (93%)
Language : English
Default : Yes
Forced : No

Audio
ID : 2
Format : AC-3
Format/Info : Audio Coding 3
Commercial name : Dolby Digital
Codec ID : A_AC3
Duration : 1 h 34 min
Bit rate mode : Constant
Bit rate : 384 kb/s
Channel(s) : 6 channels
Channel layout : L R C LFE Ls Rs
Sampling rate : 48.0 kHz
Frame rate : 31.250 FPS (1536 SPF)
Compression mode : Lossy
Stream size : 259 MiB (7%)
Language : Russian
Service kind : Complete Main
Default : Yes
Forced : No

Другие фильмы
У данной публикации пока нет комментариев.
Будь первым, оставь своё мнение в комментариях!
Информация
Посетители, находящиеся в группе Гости, не могут оставлять комментарии к данной публикации.
Самый популярный релиз недели
Донаты
Мы в соц. сетях / RSS

Лучшие релизы месяца
Лучшие SD недели
Лучшие 720p недели
Лучшие 1080p недели
Лучшие 4K недели
Вы недавно смотрели
Реклама
Последние комментарии
...

rmzshka

12 июля 2024 11:30

...

Rustik99

12 июля 2024 10:11

...

-=DoMiNo=-

11 июля 2024 23:42

...

rmzshka

11 июля 2024 11:28

...

-=DoMiNo=-

10 июля 2024 15:08

Реклама